[ Сегодня идет свободное скачивание без начисления Download ]


Статистика раздачи
Нет
 
   
 
Top  
 
 
Жуков
Год выпуска: 2011
Производство: Пиманов и партнеры
Жанр: История
Продолжительность: 00:50:00
Субтитры: Нет
Режиссёр: Алексей Мурадов
В ролях: Александр Балуев, Елена Яковлева, Любовь Толкалина, Ирина Розанова, Анна Банщикова, Борис Щербаков, Анатолий Дзиваев, Адам Булгучев, Александр Песков, Юрий Цурило, Мария Буравлева, Кристина Брыкова, Олег Цветанович, Александр Наумов, Александр Тютин, Игорь Арташонов, Олег Масленников-Войтов, Ёла Санько
Описание: Рассказ о жизни великого главнокомандующего Георгия Константиновича Жукова в период с июня 1945 года по 1974 год. Имя Жукова еще при жизни обросло слухами и легендами.
После войны он обрел огромную популярность в армии и в стране. Именно это и послужило причиной преследования маршала Сталиным. Он был отправлен командовать Одесским военным округом, затем Уральским. После смерти Сталина вернулся в Москву и участвовал в аресте Берии. Но уже в 1957 был исключен из состава ЦК партии, снят со всех постов и в 1958-м году отправлен в отставку.
Однако все эти трудности не сломили его дух, он не изменил своим принципам. В жизни маршала были три любимые женщины: жена Александра Диевна, которая родила ему двух дочерей, Лидия Захарова, отношения с которой продлились 9 лет, и Галина Семенова — последняя и самая сильная любовь его жизни, мать младшей дочери Марии.
Доп. информация: Лицензия 2xDVD9
Сэмпл: http://multi-up.com/813571
Качество: DVD9
Формат: DVD-Video
Видео кодек: MPEG2
Аудио кодек: AC3
Видео: MPEG2, 720x576, 16:9, 25.000 fps, 3320 Kbps, 0.320 bit/pixel
Аудио: AC3 2.0 128 Kbps

MI

Общее
Полное имя : \\Zhukov\Disc1\VIDEO_TS\VTS_02_1.VOB
Формат : MPEG-PS
Размер файла : 1024 Мбайт
Продолжительность : 39 м.
Режим общего битрейта : Переменный
Общий поток : 3603 Кбит/сек
Видео
Идентификатор : 224 (0xE0)
Формат : MPEG Video
Версия формата : Version 2
Профиль формата : Main@Main
Параметр BVOP формата : Да
Параметр матрицы формата : Выборочная
Параметр GOP формата : Variable
Продолжительность : 39 м.
Вид битрейта : Переменный
Битрейт : 3403 Кбит/сек
Максимальный битрейт : 4000 Кбит/сек
Ширина : 720 пикселей
Высота : 576 пикселей
Соотношение сторон : 16:9
Частота кадров : 25,000 кадров/сек
Стандарт вещания : PAL
Цветовое пространство : YUV
Субдискретизация насыщенности : 4:2:0
Битовая глубина : 8 бит
Тип развёртки : Чересстрочная
Порядок развёртки : Верхнее поле первое
Метод сжатия : С потерями
Бит/(Пиксели*Кадры) : 0.328
Размер потока : 967 Мбайт (94%)
Аудио
Идентификатор : 189 (0xBD)-128 (0x80)
Формат : AC-3
Формат/Информация : Audio Coding 3
Расширение режима : CM (complete main)
Параметр Endianness формата : Big
Режим смешивания : DVD-Video
Продолжительность : 39 м.
Вид битрейта : Постоянный
Битрейт : 128 Кбит/сек
Каналы : 2 канала
Расположение каналов : Front: L R
Частота : 48,0 КГц
Битовая глубина : 16 бит
Метод сжатия : С потерями
Размер потока : 36,4 Мбайт (4%)

DVDInfo

Title: Disc1
Size: 7.89 Gb ( 8 270 190,00 KBytes ) - DVD-9
Enabled regions: 1, 2, 3, 4, 5, 6, 8
VTS_01 :
Play Length: 00:50:55
Video: PAL 16:9 (720x576) VBR, Auto Letterboxed
Audio:
Russian (Dolby AC3, 2 ch)
VTS_02 :
Play Length: 00:52:25
Video: PAL 16:9 (720x576) VBR, Auto Letterboxed
Audio:
Russian (Dolby AC3, 2 ch)
VTS_03 :
Play Length: 00:53:03
Video: PAL 16:9 (720x576) VBR, Auto Letterboxed
Audio:
Russian (Dolby AC3, 2 ch)
VTS_04 :
Play Length: 00:51:59
Video: PAL 16:9 (720x576) VBR, Auto Letterboxed
Audio:
Russian (Dolby AC3, 2 ch)
VTS_05 :
Play Length: 00:52:12
Video: PAL 16:9 (720x576) VBR, Auto Letterboxed
Audio:
Russian (Dolby AC3, 2 ch)
VTS_06 :
Play Length: 00:51:18
Video: PAL 16:9 (720x576) VBR, Auto Letterboxed
Audio:
Russian (Dolby AC3, 2 ch)
VTS_07 :
Play Length: 00:00:15
Video: PAL 4:3 (720x576) VBR
* Menus Information *
VIDEO_TS Menu
Video:
PAL 4:3 (720x576) VBR
Russian Language Unit :
Title Menu
VTS_01 Menu
Video:
PAL 4:3 (720x576) VBR
Audio:
Not specified (Dolby AC3, 2 ch)
Russian Language Unit :
Root Menu
VTS_02 Menu
Video:
PAL 4:3 (720x576) VBR
Russian Language Unit :
Root Menu
VTS_03 Menu
Video:
PAL 4:3 (720x576) VBR
Russian Language Unit :
Root Menu
VTS_04 Menu
Video:
PAL 4:3 (720x576) VBR
Russian Language Unit :
Root Menu
VTS_05 Menu
Video:
PAL 4:3 (720x576) VBR
Russian Language Unit :
Root Menu
VTS_06 Menu
Video:
PAL 4:3 (720x576) VBR
Russian Language Unit :
Root Menu
VTS_07 Menu
Video:
PAL 4:3 (720x576) VBR
Russian Language Unit :
Root Menu

Скриншоты

[Цитировать]



Показать сообщения:    

Текущее время: 09-Дек 14:41

Часовой пояс: UTC + 3


Вы не можете начинать темы
Вы не можете отвечать на сообщения
Вы не можете редактировать свои сообщения
Вы не можете удалять свои сообщения
Вы не можете голосовать в опросах
Вы не можете прикреплять файлы к сообщениям
Вы не можете скачивать файлы

!ВНИМАНИЕ!
Сайт не предоставляет электронные версии произведений, а занимается лишь коллекционированием и каталогизацией ссылок, присылаемых и публикуемых на форуме нашими читателями. Если вы являетесь правообладателем какого-либо представленного материала и не желаете, чтобы ссылка на него находилась в нашем каталоге, свяжитесь с нами, и мы незамедлительно удалим ее. Файлы для обмена на трекере предоставлены пользователями сайта, и администрация не несет ответственности за их содержание. Просьба не заливать файлы, защищенные авторскими правами, а также файлы нелегального содержания!