[ Сегодня идет свободное скачивание без начисления Download ]


Статистика раздачи
Нет
 
   
 
Top  
 
 
РИЭЛТОР
Год выпуска: 2005
Жанр: Криминал, триллер
Продолжительность: 09:00:17 (12 серий ~ по 45 мин.)
Режиссер: Александр Хван
В ролях: Игорь Ботвин, Алексей Барабаш, Светлана Ходченкова, Светлана Крючкова, Игорь Скляр, Станислав Любшин, Ксения Каталымова, Ирина Ракшина, Юрий Гальцев
Описание: Они обаятельны. Они удачливы. Они чертовски изобретательны. Они – настоящие профессионалы. Эта парочка искусно меняет свою внешность и стили, с большим артистизмом входит в образ и не оставляет за собой никаких следов. Каждая их последующая афера не похожа на предыдущую. Ловкость этих мошенников заставляет милицию думать, что в городе «работает» большая, хорошо организованная банда квартирных кидал. Жертвами аферистов становятся по традиции самые слабые и простодушные. «Риэлтор» на своем трудовом «полигоне» то принимает образ трогательно влюбленного богатого бизнесмена, мечтающего увезти возлюбленную в Лос-Анджелес, то алкоголика, желающего продать квартиру в престижном доме, то неудачника, решившего попытать счастья в провинции… И это еще не самое интересное!
В фильме поднимается целый ряд актуальных для наших дней вопросов, ведь совершенно никто не застрахован от действий различного рода сомнительных личностей, пытающихся завладеть чужим жилищем.- -Формат видео: AVI
Видео: 544x304 (1.79:1), 25 fps, XviD build 65 ~1021 kbps avg, 0.25 bit/pixel
Аудио: 48 kHz, MPEG Layer 3, 2 ch, ~128.00 kbps

Отчет MI

GeneralComplete name : Rieltor_01.aviFormat : AVIFormat/Info : Audio Video InterleaveFile size : 381 MiBDuration : 45mn 56sOverall bit rate : 1 159 KbpsWriting application : VirtualDubModRus 1.5.10.2 (build 2542/release)Writing library : VirtualDubMod build 2542/release
VideoID : 0Format : MPEG-4 VisualFormat profile : Advanced [email protected] settings, BVOP : 1Format settings, QPel : NoFormat settings, GMC : No warppointsFormat settings, Matrix : CustomCodec ID : XVIDCodec ID/Hint : XviDDuration : 45mn 56sBit rate : 1 022 KbpsWidth : 544 pixelsHeight : 304 pixelsDisplay aspect ratio : 16:9Frame rate : 25.000 fpsColor space : YUVChroma subsampling : 4:2:0Bit depth : 8 bitsScan type : ProgressiveCompression mode : LossyBits/(Pixel*Frame) : 0.247Stream size : 336 MiB (88%)Writing library : XviD 65
AudioID : 1Format : MPEG AudioFormat version : Version 1Format profile : Layer 3Mode : Joint stereoMode extension : MS StereoCodec ID : 55Codec ID/Hint : MP3Duration : 45mn 56sBit rate mode : ConstantBit rate : 128 KbpsChannel count : 2 channelsSampling rate : 48.0 KHzCompression mode : LossyStream size : 42.1 MiB (11%)Alignment : Split accross interleavesInterleave, duration : 40 ms (1.00 video frame)Interleave, preload duration : 500 ms

[Цитировать]



Показать сообщения:    

Текущее время: 05-Дек 05:34

Часовой пояс: UTC + 3


Вы не можете начинать темы
Вы не можете отвечать на сообщения
Вы не можете редактировать свои сообщения
Вы не можете удалять свои сообщения
Вы не можете голосовать в опросах
Вы не можете прикреплять файлы к сообщениям
Вы не можете скачивать файлы

!ВНИМАНИЕ!
Сайт не предоставляет электронные версии произведений, а занимается лишь коллекционированием и каталогизацией ссылок, присылаемых и публикуемых на форуме нашими читателями. Если вы являетесь правообладателем какого-либо представленного материала и не желаете, чтобы ссылка на него находилась в нашем каталоге, свяжитесь с нами, и мы незамедлительно удалим ее. Файлы для обмена на трекере предоставлены пользователями сайта, и администрация не несет ответственности за их содержание. Просьба не заливать файлы, защищенные авторскими правами, а также файлы нелегального содержания!