[ Сегодня идет свободное скачивание без начисления Download ]


Статистика раздачи
Нет
 
   
 
Top  
 
 
-Пляж (2014) SATRip [Сезон 1,серия 1-2 из 32] (Обновляемая)- Год выпуска: 2014
Жанр: Детектив, Комедия

Дата российской премьеры: 16 июня 2014 (НТВ)
Режиссер: Дмитрий Пантелеев
Актеры: Павел Делонг, Георгий Дронов, Анна Топчий, Ольга Берёзкина, Михаил Грицык, Дана Агишева, Заза Чантурия, Виталий Салий, Александр Перков, Николай Григоренко, Алексей Смолка, Мария Цап-Страшилина, Георгий Хостикоев, Елена Баламутова, Саак Дурян, Арсен Босенко, Олег Шевчук, Дмитрий Захаров (IV), Анна Сагайдачная, Алена Алымова, Иванна Бжезинская, Михаил Досенко, Марк Дробот, Андрей Мельников, Валерий Савченко (II), Михаил Малицкий, Роман Лукьянов, Георгий Делиев, Максим Записочный, Василий Кухарский, Вадим Головко, Екатерина Горбань, Злата Швец-Скальская, Сергей Детюк, Елена Ященко
Описание фильма:
Главный герой сериала «Пляж» – бывший милиционер Парамонов (Павел Делонг) из маленького курортного городка Азовска, расположенного в Краснодарском крае. Честный и неподкупный, искренне стремившийся бороться с преступностью, не идя ни на какие компромиссы с совестью, он был белой вороной на фоне своих коллег, подавляющее большинство которых состояло из алкоголиков, карьеристов и взяточников.
Долгое время Парамонов старался противостоять беззаконию, которое процветало среди тех, кто по своим служебным обязанностям должен был закон охранять. В конце концов, когда Парамонов ответил отказом на настойчивое предложение начальства принять участие в очередной махинации, он был вынужден выйти в отставку.
С тех пор прошло восемь лет. Парамонов, твердо решив начать новую, спокойную жизнь, сменил много мест работы и в итоге стал директором местного пляжа. Но окончательно поставить крест на своей прежней профессии ему так и не удалось. Во-первых, его лучший друг и бывший коллега Дашко (Георгий Дронов), который дослужился до начальника того самого РОВД, который когда-то покинул Парамонов, по старой памяти постоянно обращается к нему за помощью в расследовании запутанных преступлений. А во-вторых, на территории находящегося в ведении Парамонова пляжа то и дело происходят различные детективные истории и возникают непредвиденные ситуации, которые требуют от него не административных умений, а скорее, навыков сыщика, приобретенных им во время службы в милиции.
Но не только раскрытием правонарушений занимается в свободное от работы время пляжный Шерлок Холмс. Есть в его жизни место и для романтической истории: сердце сурового борца с преступностью взяла в плен стройная красавица (Анна Топчий), трудящаяся на вверенном ему пляже массовиком-затейником.
Продолжительность: ~00:45:00 серия
Качество видео: SATRip
Видеокодек: Xvid
Битрейт видео: ~1900 kb/s
Размер кадра: 720х416
Аудиокодек: MP3
Битрейт аудио: 192 кбит/с,2 chВсе релизы "Пляж"

Медаинфо

General
Complete name : D:\Пляж\01 серия.avi
Format : AVI
Format/Info : Audio Video Interleave
File size : 612 MiB
Duration : 44mn 22s
Overall bit rate : 1 928 Kbps
Writing application : VirtualDubMod 1.5.10.3 | www.virtualdub-fr.org || (build 2550/release)
Writing library : VirtualDubMod build 2550/release
Video
ID : 0
Format : MPEG-4 Visual
Format profile : Advanced Simple@L5
Format settings, BVOP : 2
Format settings, QPel : No
Format settings, GMC : No warppoints
Format settings, Matrix : Default (H.263)
Codec ID : XVID
Codec ID/Hint : XviD
Duration : 44mn 22s
Bit rate : 1 726 Kbps
Width : 720 pixels
Height : 416 pixels
Display aspect ratio : 1.731
Frame rate : 25.000 fps
Color space : YUV
Chroma subsampling : 4:2:0
Bit depth : 8 bits
Scan type : Progressive
Compression mode : Lossy
Bits/(Pixel*Frame) : 0.230
Stream size : 548 MiB (90%)
Writing library : XviD 73
Audio
ID : 1
Format : MPEG Audio
Format version : Version 1
Format profile : Layer 3
Codec ID : 55
Codec ID/Hint : MP3
Duration : 44mn 22s
Bit rate mode : Constant
Bit rate : 192 Kbps
Channel(s) : 2 channels
Sampling rate : 48.0 KHz
Compression mode : Lossy
Stream size : 60.9 MiB (10%)
Alignment : Aligned on interleaves
Interleave, duration : 40 ms (1.00 video frame)
Interleave, preload duration : 504 ms
Writing library : LAME3.99r
Encoding settings : -m s -V 4 -q 0 -lowpass 18.6 -b 192

Внимание! Раздача ведётся путём добавления новых серий

Внимание! Раздача ведётся путём добавления новых серий; при каждом добавлении создётся новый торрент. Чтобы начать докачку новой серии, пользователям необходимо сделать следующее: (1) остановить скачивание, (2) удалить старый торрент у себя из клиента (старые серии удалять не надо), (3) скачать новый торрент и запустить его у себя в клиенте вместо старого, при этом указать клиенту путь в старую папку куда и должно происходить скачивание новых серий.
Ваш клиент при этом должен произвести хеширование (проверку) старой папки (если не производит сам - помогите ему сделать это), и будет докачивать только те серии которых у вас ещё нет. Старые серии при этом не удаляются, а продолжают раздаваться!
Eсли вы уже удалили старые серии, то предотвратить повторную закачку старых серий можно, отжав галочку в соответсвующих местах при запуске нового торрента. По возможности, желательно не удалять старые серии как можно дольше чтобы релизёр не столько продолжал раздавать старые серии, а смог сконцентрироваться на новых.
Скриншоты:

Время раздачи: По возможности

[Цитировать]



Показать сообщения:    

Текущее время: 22-Янв 06:36

Часовой пояс: UTC + 3


Вы не можете начинать темы
Вы не можете отвечать на сообщения
Вы не можете редактировать свои сообщения
Вы не можете удалять свои сообщения
Вы не можете голосовать в опросах
Вы не можете прикреплять файлы к сообщениям
Вы не можете скачивать файлы

!ВНИМАНИЕ!
Сайт не предоставляет электронные версии произведений, а занимается лишь коллекционированием и каталогизацией ссылок, присылаемых и публикуемых на форуме нашими читателями. Если вы являетесь правообладателем какого-либо представленного материала и не желаете, чтобы ссылка на него находилась в нашем каталоге, свяжитесь с нами, и мы незамедлительно удалим ее. Файлы для обмена на трекере предоставлены пользователями сайта, и администрация не несет ответственности за их содержание. Просьба не заливать файлы, защищенные авторскими правами, а также файлы нелегального содержания!