[ Сегодня идет свободное скачивание без начисления Download ]


Статистика раздачи
Нет
 
   
 
Top  
 
 
-Я всё преодолею (2014) SATRip [1-4 серии из 4]- Год выпуска: 2014
Жанр: Мелодрама

Режиссер: Игорь Мужжухин
Актеры: Юлия Кокрятская, Алексей Зубков, Артур Иванов, Любовь Тихомирова, Вадим Колганов, Игорь Ясулович, Александр Серов-Останкинский, Анна Капалева, Юрий Сазонов, Николь Спиридонова
Описание фильма:
Люда – настоящая русская женщина, которая тащит непомерную ношу на хрупких плечах. Она борется с пьянством мужа, воспитывает детей, помогает подруге и терпеливо сносит попреки свекрови. Но судьба словно проверяет героиню на прочность, и очередным ударом оказывается не житейская неурядица, а настоящая трагедия. Муж Люды трагически погибает при пожаре, а дом сгорает дотла. Словно сорвавшись с цепи, близкие люди сбрасывают маски приличия и предают героиню: свекровь не дает крова, а лучшая подруга из ревности прогоняет ее на улицу..
Продолжительность: 4 x ~ 00:45:00
Качество видео: SATRip
Видеокодек: Xvid
Битрейт видео: ~1378 kb/s
Размер кадра: 720x384
Аудиокодек: MP3
Битрейт аудио: 2 ch, 192 kb/s-

МедиаИнфо

Общее
Полное имя : E:\Фильмы\Я_всё_преодолею.2014.SATRip\01_Я всё преодолею.avi
Формат : AVI
Формат/Информация : Audio Video Interleave
Размер файла : 501 Мбайт
Продолжительность : 44 м.
Общий поток : 1580 Кбит/сек
Программа кодирования : VirtualDubModRus 1.5.10.2 (build 2542/release)
Библиотека кодирования : VirtualDubMod build 2542/release
Видео
Идентификатор : 0
Формат : MPEG-4 Visual
Профиль формата : Advanced Simple@L5
Параметр BVOP формата : 1
Параметр QPel формата : Нет
Параметр GMC формата : Без точки перехода
Параметр матрицы формата : Выборочная
Идентификатор кодека : XVID
Идентификатор кодека/Подсказка : XviD
Продолжительность : 44 м.
Битрейт : 1378 Кбит/сек
Ширина : 720 пикселей
Высота : 384 пикселя
Соотношение сторон : 1,85:1
Частота кадров : 25,000 кадров/сек
Цветовое пространство : YUV
Субдискретизация насыщенности : 4:2:0
Битовая глубина : 8 бит
Тип развёртки : Прогрессивная
Метод сжатия : С потерями
Бит/(Пиксели*Кадры) : 0.199
Размер потока : 437 Мбайт (87%)
Библиотека кодирования : XviD 73
Аудио
Идентификатор : 1
Формат : MPEG Audio
Версия формата : Version 1
Профиль формата : Layer 3
Идентификатор кодека : 55
Идентификатор кодека/Подсказка : MP3
Продолжительность : 44 м.
Вид битрейта : Постоянный
Битрейт : 192 Кбит/сек
Каналы : 2 канала
Частота : 48,0 КГц
Метод сжатия : С потерями
Размер потока : 60,8 Мбайт (12%)
Выравнивание : Соединение по промежуткам
Продолжительность промежутка : 40 мс. (1,00 видеокадр)
Время предзагрузки промежутка : 504 мс.
Библиотека кодирования : LAME3.99r
Настройки программы : -m s -V 4 -q 2 -lowpass 18.6 -b 192
Скриншоты: Время раздачи: До 5\6 скачавших

[Цитировать]



Показать сообщения:    

Текущее время: 11-Дек 05:19

Часовой пояс: UTC + 3


Вы не можете начинать темы
Вы не можете отвечать на сообщения
Вы не можете редактировать свои сообщения
Вы не можете удалять свои сообщения
Вы не можете голосовать в опросах
Вы не можете прикреплять файлы к сообщениям
Вы не можете скачивать файлы

!ВНИМАНИЕ!
Сайт не предоставляет электронные версии произведений, а занимается лишь коллекционированием и каталогизацией ссылок, присылаемых и публикуемых на форуме нашими читателями. Если вы являетесь правообладателем какого-либо представленного материала и не желаете, чтобы ссылка на него находилась в нашем каталоге, свяжитесь с нами, и мы незамедлительно удалим ее. Файлы для обмена на трекере предоставлены пользователями сайта, и администрация не несет ответственности за их содержание. Просьба не заливать файлы, защищенные авторскими правами, а также файлы нелегального содержания!