[ Сегодня идет свободное скачивание без начисления Download ]


Статистика раздачи
Нет
 
   
 
Top  
 
 
-Гудзонский ястреб / Hudson Hawk (1991) BDRip- Год выпуска: 1991
Жанр: Боевик, Комедия, Приключения
Производство: США / TriStar Pictures, Silver Pictures, Ace Bone
Описание фильма:
«Гудзонский Ястреб» — прозвище непревзойденного вора Эдди, который может открыть любой сейф за считанные секунды. Выйдя из тюрьмы, король кражи решает уйти на заслуженный отдых. Но слишком многие на свободе заинтересованы в его криминальном таланте.
С помощью шантажа коварные злоумышленники заставляют Эдди совершить ограбление века: он должен похитить три шедевра Леонардо Да Винчи из самых охраняемых музеев мира всего за несколько дней! «Гудзонский Ястреб» снова отправляется на охоту, но на этот раз в бескрайнем небе он не одинок…
Режиссер: Майкл Леманн
Актеры: Брюс Уиллис, Дэнни Айелло, Энди МакДауэлл, Джеймс Коберн, Ричард Э. Грант, Сандра Бернхард, Дональд Бертон, Дон Харви, Дэвид Карузо, Эндрю Бринярски, Лоррейн Туссен, Бертт Харрис, Фрэнк Сталлоне, Кармин Зоззора, Стефано Молинари, Энрико Ло Версо, Ремо Ремотти
Продолжительность: 01:39:53
Качество видео: BDRip
Перевод: Дублированный, Многоголосый закадровый, Двуголосый закадровый, Одноголосый закадровый
Язык субтитров: Русский, Английский
Вид субтитров: Вшитые отключаемые

Видеокодек: MPEG-4 AVC/H.264
Битрейт видео: ~12,8 Mbps
Размер кадра: 1920 x 1040
Аудио 01: Русский, AC3 4.0, 640 kbps, 48 kHz (Дубляж, BD EUR)
Аудио 02: Русский, AC3 2.0, 448 kbps, 48 kHz (Дубляж, Видеосервис)
Аудио 03: Русский, AC3 2.0, 192 kbps, 48 kHz (Дубляж, Варус-видео)
Аудио 04: Русский, AC3 2.0, 192 kbps, 48 kHz (MVO, ОРТ)
Аудио 05: Русский, AC3 2.0, 192 kbps, 48 kHz (DVO, НТВ)
Аудио 06: Русский, AC3 2.0, 192 kbps, 48 kHz (AVO, CDU-Matros)
Аудио 07: Русский, AC3 2.0, 192 kbps, 48 kHz (AVO, А.Гаврилов (ранний)
Аудио 08: Русский, DTS 2.0, 1509 kbps, 48 kHz (AVO, А.Гаврилов (поздний)
Аудио 09: Русский, DTS 2.0, 1509 kbps, 48 kHz (AVO, В.Горчаков)
Аудио 10: Английский, DTS 2.0, 1509 kbps, 48 kHz (Оригинал)
Аудио 11: Английский, AC3 2.0, 192 kbps, 48 kHz (Комментарий)
Сэмпл: Ссылка

Знаете ли вы, что...

Название фильма — пародия на название знаменитого детективного фильма «Мальтийский сокол» (1941).

Награды:

Золотая малина, 2000 год
Номинации (1):
Худший фильм десятилетия
Золотая малина, 1992 год
Победитель (3):
Худший фильм
Худший режиссер (Майкл Леманн)
Худший сценарий
Номинации (3):
Худшая мужская роль (Брюс Уиллис)
Худшая мужская роль второго плана (Ричард Э. Грант)
Худшая женская роль второго плана (Сандра Бернхард)

Из книги «3500 кинорецензий»

Криминально-приключенческая комедия
Скромные кассовые результаты этого фильма были восприняты в США как один из самых громких провалов только потому, что бюджет составил $65 млн. И уж тем более лента не заслуживала трёх позорных премий «Золотая малина», включая главную, а позже — номинации на худшую картину десятилетия. Но порой трудно уразуметь предпочтения или же неприятие капризных американских зрителей. Они встретили почему-то на «ура» «Крепкий орешек 2» (с тем же Брюсом Уиллисом в главной роли), который напрочь проигрывает первой части по логике, правдоподобию и жанровой безупречности, однако не захотели вдоволь повеселиться на авантюрной, почти пародийной комедии «Гудзонов ястреб», вроде бы обладающей всеми необходимыми «приманками».
Сюжет фильма (как и заглавная музыкальная тема) принадлежит именно Уиллису, который ещё в конце 70-х годов, будучи сначала барменом в Нью-Йорке, потом безвестным актёром в малых театрах off-off-Broadway, вдохновившись своей же песенкой (а он в то время выступал и на эстраде), сочинил невероятную историю похождений знаменитого вора Эдди Хокинса по прозвищу Гудзонов Ястреб. Выйдя из тюрьмы Синг-Синг, Эдди стал участником заманчивой авантюры по похищению уникальной бронзовой статуэтки Леонардо да Винчи. Но из-за шантажа мафии вскоре убедился, что вовлечён в хитроумную сеть более коварных преступников, которые задумали открыть тайну «кристалла Леонардо» (секрет производства золота из свинца) и установить своё могущество во всём мире.
Возможно, что 34-летнему режиссёру Майклу Леманну (до этого он поставил две малобюджетные ленты) не хватает лёгкости и непринуждённости в обращении с материалом, раскрытия комиксовой природы повествования, подчёркивания более тесной связи с авантюрными романами средних веков о поисках чаши Грааля или «философского камня» алхимиков. Тем не менее, картина в целом представляется достаточно увлекательной, насыщенной сложными трюками, подчас очень забавными гэгами, выходками профессионального искателя приключений, в роли которого Брюс Уиллис щедро (порой чрезмерно) реализует свой комедийный дар, не забывая «по совместительству» демонстрировать и свою «твёрдолобость».
Кстати, телесериал, впервые прославивший этого актёра, ошибочно переводится как «Лунный свет» или же совершенно вольно — «Модель и шпик». Потому что на самом деле Moonlighting — это намёк на то, что частный сыщик, работающий по совместительству, впутывает свою матрону, разорившуюся манекенщицу, в сложные перипетии лишь для того, чтобы доказать ей собственную необходимость, а также право на зарплату. Не поссорившись друг с другом, даже вопреки финансовому краху «Гудзонова Ястреба», продюсер Джоэл Силвер и актёр Брюс Уиллис всё-таки взяли коммерческий реванш в том же 1991 году благодаря «Последнему бойскауту».

MediaInfo:

Общее
Уникальный идентификатор : 187495834523571740762925320630530278141 (0x8D0E625BF57D2FB59AF5E98C574102FD)
Полное имя : D:\Films\Hudson.Hawk.1991.BDRip.1080p.mkv
Формат : Matroska
Версия формата : Version 2
Размер файла : 13,7 Гбайт
Продолжительность : 1 ч. 39 м.
Общий поток : 19,6 Мбит/сек
Дата кодирования : UTC 2014-06-16 19:22:58
Программа кодирования : mkvmerge v5.2.0 ('I can't explain') built on Dec 18 2011 18:12:03
Библиотека кодирования : libebml v1.2.3 + libmatroska v1.3.0
Видео
Идентификатор : 1
Формат : AVC
Формат/Информация : Advanced Video Codec
Профиль формата : High@L4.1
Параметр CABAC формата : Да
Параметр ReFrames формата : 4 кадра
Идентификатор кодека : V_MPEG4/ISO/AVC
Продолжительность : 1 ч. 39 м.
Битрейт : 12,8 Мбит/сек
Ширина : 1920 пикселей
Высота : 1040 пикселей
Соотношение сторон : 1,85:1
Режим частоты кадров : Постоянный
Частота кадров : 23,976 кадра/сек
Цветовое пространство : YUV
Субдискретизация насыщенности : 4:2:0
Битовая глубина : 8 бит
Тип развёртки : Прогрессивная
Бит/(Пиксели*Кадры) : 0.268
Размер потока : 8,68 Гбайт (63%)
Библиотека кодирования : x264 core 129 r2230 1cffe9f
Настройки программы : cabac=1 / ref=4 / deblock=1:-2:-2 / analyse=0x3:0x113 / me=umh / subme=10 / psy=1 / psy_rd=1.20:0.20 / mixed_ref=1 / me_range=32 / chroma_me=1 / trellis=2 / 8x8dct=1 / cqm=0 / deadzone=21,11 / fast_pskip=0 / chroma_qp_offset=-3 / threads=12 / lookahead_threads=2 / sliced_threads=0 / nr=0 / decimate=0 / interlaced=0 / bluray_compat=0 / constrained_intra=0 / bframes=5 / b_pyramid=2 / b_adapt=2 / b_bias=0 / direct=3 / weightb=1 / open_gop=0 / weightp=2 / keyint=240 / keyint_min=1 / scenecut=40 / intra_refresh=0 / rc_lookahead=60 / rc=2pass / mbtree=0 / bitrate=12829 / ratetol=1.0 / qcomp=0.60 / qpmin=10 / qpmax=51 / qpstep=4 / cplxblur=20.0 / qblur=0.5 / vbv_maxrate=38000 / vbv_bufsize=38000 / nal_hrd=none / ip_ratio=1.40 / pb_ratio=1.30 / aq=1:1.00
Язык : English
Default : Да
Forced : Нет
Аудио #1
Идентификатор : 2
Формат : AC-3
Формат/Информация : Audio Coding 3
Расширение режима : CM (complete main)
Параметр Endianness формата : Big
Идентификатор кодека : A_AC3
Продолжительность : 1 ч. 39 м.
Вид битрейта : Постоянный
Битрейт : 640 Кбит/сек
Каналы : 4 канала
Расположение каналов : Front: L C R, Back: C
Частота : 48,0 КГц
Битовая глубина : 16 бит
Метод сжатия : С потерями
Размер потока : 457 Мбайт (3%)
Заголовок : DUB BD EUR
Язык : Russian
Default : Да
Forced : Нет
Аудио #2
Идентификатор : 3
Формат : AC-3
Формат/Информация : Audio Coding 3
Расширение режима : CM (complete main)
Параметр Endianness формата : Big
Идентификатор кодека : A_AC3
Продолжительность : 1 ч. 39 м.
Вид битрейта : Постоянный
Битрейт : 448 Кбит/сек
Каналы : 2 канала
Расположение каналов : Front: L R
Частота : 48,0 КГц
Битовая глубина : 16 бит
Метод сжатия : С потерями
Размер потока : 320 Мбайт (2%)
Заголовок : DUB, Видеосервис
Язык : Russian
Default : Нет
Forced : Нет
Аудио #3
Идентификатор : 4
Формат : AC-3
Формат/Информация : Audio Coding 3
Расширение режима : CM (complete main)
Параметр Endianness формата : Big
Идентификатор кодека : A_AC3
Продолжительность : 1 ч. 39 м.
Вид битрейта : Постоянный
Битрейт : 192 Кбит/сек
Каналы : 2 канала
Расположение каналов : Front: L R
Частота : 48,0 КГц
Битовая глубина : 16 бит
Метод сжатия : С потерями
Размер потока : 137 Мбайт (1%)
Заголовок : DUB, Варус-видео
Язык : Russian
Default : Нет
Forced : Нет
Аудио #4
Идентификатор : 5
Формат : AC-3
Формат/Информация : Audio Coding 3
Расширение режима : CM (complete main)
Параметр Endianness формата : Big
Идентификатор кодека : A_AC3
Продолжительность : 1 ч. 39 м.
Вид битрейта : Постоянный
Битрейт : 192 Кбит/сек
Каналы : 2 канала
Расположение каналов : Front: L R
Частота : 48,0 КГц
Битовая глубина : 16 бит
Метод сжатия : С потерями
Размер потока : 137 Мбайт (1%)
Заголовок : MVO, ОРТ
Язык : Russian
Default : Нет
Forced : Нет
Аудио #5
Идентификатор : 6
Формат : AC-3
Формат/Информация : Audio Coding 3
Расширение режима : CM (complete main)
Параметр Endianness формата : Big
Идентификатор кодека : A_AC3
Продолжительность : 1 ч. 39 м.
Вид битрейта : Постоянный
Битрейт : 192 Кбит/сек
Каналы : 2 канала
Расположение каналов : Front: L R
Частота : 48,0 КГц
Битовая глубина : 16 бит
Метод сжатия : С потерями
Размер потока : 137 Мбайт (1%)
Заголовок : DVO, НТВ
Язык : Russian
Default : Нет
Forced : Нет
Аудио #6
Идентификатор : 7
Формат : AC-3
Формат/Информация : Audio Coding 3
Расширение режима : CM (complete main)
Параметр Endianness формата : Big
Идентификатор кодека : A_AC3
Продолжительность : 1 ч. 39 м.
Вид битрейта : Постоянный
Битрейт : 192 Кбит/сек
Каналы : 2 канала
Расположение каналов : Front: L R
Частота : 48,0 КГц
Битовая глубина : 16 бит
Метод сжатия : С потерями
Размер потока : 137 Мбайт (1%)
Заголовок : AVO, CDV-Matros
Язык : Russian
Default : Нет
Forced : Нет
Аудио #7
Идентификатор : 8
Формат : AC-3
Формат/Информация : Audio Coding 3
Расширение режима : CM (complete main)
Параметр Endianness формата : Big
Идентификатор кодека : A_AC3
Продолжительность : 1 ч. 39 м.
Вид битрейта : Постоянный
Битрейт : 192 Кбит/сек
Каналы : 2 канала
Расположение каналов : Front: L R
Частота : 48,0 КГц
Битовая глубина : 16 бит
Метод сжатия : С потерями
Размер потока : 137 Мбайт (1%)
Заголовок : AVO, A.Гаврилов (ранний)
Язык : Russian
Default : Нет
Forced : Нет
Аудио #8
Идентификатор : 9
Формат : DTS
Формат/Информация : Digital Theater Systems
Режим : 16
Параметр Endianness формата : Big
Идентификатор кодека : A_DTS
Продолжительность : 1 ч. 39 м.
Вид битрейта : Постоянный
Битрейт : 1509 Кбит/сек
Каналы : 2 канала
Расположение каналов : Front: L R
Частота : 48,0 КГц
Битовая глубина : 24 бит
Метод сжатия : С потерями
Размер потока : 1,05 Гбайт (8%)
Заголовок : AVO, A.Гаврилов (поздний)
Язык : Russian
Default : Нет
Forced : Нет
Аудио #9
Идентификатор : 10
Формат : DTS
Формат/Информация : Digital Theater Systems
Режим : 16
Параметр Endianness формата : Big
Идентификатор кодека : A_DTS
Продолжительность : 1 ч. 39 м.
Вид битрейта : Постоянный
Битрейт : 1509 Кбит/сек
Каналы : 2 канала
Расположение каналов : Front: L R
Частота : 48,0 КГц
Битовая глубина : 24 бит
Метод сжатия : С потерями
Размер потока : 1,05 Гбайт (8%)
Заголовок : AVO, B.Горчаков
Язык : Russian
Default : Нет
Forced : Нет
Аудио #10
Идентификатор : 11
Формат : DTS
Формат/Информация : Digital Theater Systems
Режим : 16
Параметр Endianness формата : Big
Идентификатор кодека : A_DTS
Продолжительность : 1 ч. 39 м.
Вид битрейта : Постоянный
Битрейт : 1509 Кбит/сек
Каналы : 2 канала
Расположение каналов : Front: L R
Частота : 48,0 КГц
Битовая глубина : 24 бит
Метод сжатия : С потерями
Размер потока : 1,05 Гбайт (8%)
Заголовок : Original
Язык : English
Default : Нет
Forced : Нет
Аудио #11
Идентификатор : 12
Формат : AC-3
Формат/Информация : Audio Coding 3
Расширение режима : CM (complete main)
Параметр Endianness формата : Big
Идентификатор кодека : A_AC3
Продолжительность : 1 ч. 39 м.
Вид битрейта : Постоянный
Битрейт : 192 Кбит/сек
Каналы : 2 канала
Расположение каналов : Front: L R
Частота : 48,0 КГц
Битовая глубина : 16 бит
Метод сжатия : С потерями
Размер потока : 137 Мбайт (1%)
Заголовок : Commentary
Язык : English
Default : Нет
Forced : Нет
Текст #1
Идентификатор : 13
Формат : UTF-8
Идентификатор кодека : S_TEXT/UTF8
Идентификатор кодека/Информация : UTF-8 Plain Text
Язык : Russian
Default : Нет
Forced : Нет
Текст #2
Идентификатор : 14
Формат : UTF-8
Идентификатор кодека : S_TEXT/UTF8
Идентификатор кодека/Информация : UTF-8 Plain Text
Язык : English
Default : Нет
Forced : Нет
Меню
00:00:00.000 : :Chapter 01
00:06:28.388 : :Chapter 02
00:12:51.061 : :Chapter 03
00:17:11.530 : :Chapter 04
00:24:48.320 : :Chapter 05
00:30:26.241 : :Chapter 06
00:37:08.935 : :Chapter 07
00:43:51.629 : :Chapter 08
00:49:04.316 : :Chapter 09
00:55:11.308 : :Chapter 10
01:04:16.477 : :Chapter 11
01:11:05.219 : :Chapter 12
01:17:40.656 : :Chapter 13
01:27:01.216 : :Chapter 14
01:34:03.262 : :Chapter 15
-Скриншоты:

[Цитировать]



Показать сообщения:    

Текущее время: 08-Дек 01:22

Часовой пояс: UTC + 3


Вы не можете начинать темы
Вы не можете отвечать на сообщения
Вы не можете редактировать свои сообщения
Вы не можете удалять свои сообщения
Вы не можете голосовать в опросах
Вы не можете прикреплять файлы к сообщениям
Вы не можете скачивать файлы

!ВНИМАНИЕ!
Сайт не предоставляет электронные версии произведений, а занимается лишь коллекционированием и каталогизацией ссылок, присылаемых и публикуемых на форуме нашими читателями. Если вы являетесь правообладателем какого-либо представленного материала и не желаете, чтобы ссылка на него находилась в нашем каталоге, свяжитесь с нами, и мы незамедлительно удалим ее. Файлы для обмена на трекере предоставлены пользователями сайта, и администрация не несет ответственности за их содержание. Просьба не заливать файлы, защищенные авторскими правами, а также файлы нелегального содержания!