[ Сегодня идет свободное скачивание без начисления Download ]


Статистика раздачи
Нет
 
   
 
Top  
 
 
-Автоответчик: Удаленные сообщения / Messages Deleted (2009) BDRip [1080p]- Год выпуска: 2009
Производство: Канада / Waterfront Pictures, Main Street Productions
Жанр: Триллер, Детектив
Язык: Русский, английский
Перевод: Многоголосый закадровый, профессиональный
Субтитры: Вшитые отключаемые
Язык субтитров: Русский, английский
Дата мировой премьеры: 27 сентября 2010 года
Дата выхода DVD релиза: 10 декабря 2009 года
Режиссер: Роб Кауэн
Продюсер: Роб Кауэн, Джим О’Грэйди, Дэвид Дорксен
Актеры: Мэттью Лиллард, Дебора Кара Ангер, Джина Холден, Серж Уд, Чиара Занни, Майкл Эклунд, Ксанта Рэдли, Кен Крамер, Брэндон Джей МакЛарен, Вуди Джеффрис
Описание фильма:
Дрожащий голос просит сценариста, Джоуля Брэндта, поднимать трубку на сообщение его автоответчика. Думая что это шутка, Джоуль удаляет запись — звонивший найден мертвым. Так повторяется несколько раз. Теперь сценарист — главный подозреваемый в ряде убийств. Джоуль приходит к мысли, что психопатичный убийца действует по сценарию его произведения. Теперь автору необходимо переписать концовку рассказа, иначе Брэндту придется заплатить слишком высокую цену.

Продолжительность: 01:31:26
Качество видео: BDRip [1080p]
Видеокодек: MPEG-4 AVC/H.264
Битрейт видео: ~11.0 Мбит/сек
Размер кадра: 1916x1080
Аудио 1: AC3, 6 каналов, 640 Кбит/с | Русский
Аудио 2: AC3, 6 каналов, 448 Кбит/с | Русский
Аудио 3: AC3, 6 каналов, 640 Кбит/с | Английский
Аудио 4: DTS, 6 каналов, 1509 Кбит/с | Английский
Релиз группа:

MediaInfo:

Общее
Уникальный идентификатор : 187155234630937270371105156127709236247 (0x8CCCC97CECCC4F47A80C137F01BC8C17)
Полное имя : Messages Deleted. (2009) BDRip 1080p.mkv
Формат : Matroska
Версия формата : Version 2
Размер файла : 9,09 Гбайт
Продолжительность : 1 ч. 31 м.
Общий поток : 14,2 Мбит/сек
Название фильма : Messages Deleted. 2009
Дата кодирования : UTC 2014-06-18 19:45:26
Программа кодирования : mkvmerge v5.8.0 ('No Sleep / Pillow') built on Sep 2 2012 15:37:04
Библиотека кодирования : libebml v1.2.3 + libmatroska v1.3.0
Видео
Идентификатор : 1
Формат : AVC
Формат/Информация : Advanced Video Codec
Профиль формата : High@L4.1
Параметр CABAC формата : Да
Параметр ReFrames формата : 4 кадра
Идентификатор кодека : V_MPEG4/ISO/AVC
Продолжительность : 1 ч. 31 м.
Битрейт : 11,0 Мбит/сек
Ширина : 1916 пикселей
Высота : 1080 пикселей
Соотношение сторон : 16:9
Режим частоты кадров : Постоянный
Частота кадров : 23,976 кадра/сек
Цветовое пространство : YUV
Субдискретизация насыщенности : 4:2:0
Битовая глубина : 8 бит
Тип развёртки : Прогрессивная
Бит/(Пиксели*Кадры) : 0.222
Размер потока : 6,84 Гбайт (75%)
Заголовок : CHD
Библиотека кодирования : x264 core 142 r2431 ac76440
Настройки программы : cabac=1 / ref=4 / deblock=1:-3:-3 / analyse=0x3:0x113 / me=umh / subme=11 / psy=1 / psy_rd=1.05:0.10 / mixed_ref=1 / me_range=48 / chroma_me=1 / trellis=2 / 8x8dct=1 / cqm=0 / deadzone=21,11 / fast_pskip=0 / chroma_qp_offset=-2 / threads=6 / lookahead_threads=1 / sliced_threads=0 / nr=0 / decimate=1 / interlaced=0 / bluray_compat=0 / constrained_intra=0 / bframes=6 / b_pyramid=2 / b_adapt=2 / b_bias=0 / direct=3 / weightb=1 / open_gop=0 / weightp=2 / keyint=250 / keyint_min=23 / scenecut=40 / intra_refresh=0 / rc_lookahead=40 / rc=2pass / mbtree=0 / bitrate=11000 / ratetol=2.0 / qcomp=0.70 / qpmin=0 / qpmax=69 / qpstep=4 / cplxblur=20.0 / qblur=0.5 / vbv_maxrate=40000 / vbv_bufsize=30000 / nal_hrd=none / filler=0 / ip_ratio=1.40 / pb_ratio=1.30 / aq=2:1.00
Язык : English
Default : Да
Forced : Нет
Аудио #1
Идентификатор : 2
Формат : AC-3
Формат/Информация : Audio Coding 3
Расширение режима : CM (complete main)
Параметр Endianness формата : Big
Идентификатор кодека : A_AC3
Продолжительность : 1 ч. 31 м.
Вид битрейта : Постоянный
Битрейт : 640 Кбит/сек
Каналы : 6 каналов
Расположение каналов : Front: L C R, Side: L R, LFE
Частота : 48,0 КГц
Битовая глубина : 16 бит
Метод сжатия : С потерями
Размер потока : 419 Мбайт (5%)
Заголовок : Rus | AC3 | 640 Kbps
Язык : Russian
Default : Да
Forced : Нет
Аудио #2
Идентификатор : 3
Формат : AC-3
Формат/Информация : Audio Coding 3
Расширение режима : CM (complete main)
Параметр Endianness формата : Big
Идентификатор кодека : A_AC3
Продолжительность : 1 ч. 31 м.
Вид битрейта : Постоянный
Битрейт : 448 Кбит/сек
Каналы : 6 каналов
Расположение каналов : Front: L C R, Side: L R, LFE
Частота : 48,0 КГц
Битовая глубина : 16 бит
Метод сжатия : С потерями
Размер потока : 294 Мбайт (3%)
Заголовок : Rus | AC3 | 448 Kbps
Язык : Russian
Default : Нет
Forced : Нет
Аудио #3
Идентификатор : 4
Формат : AC-3
Формат/Информация : Audio Coding 3
Расширение режима : CM (complete main)
Параметр Endianness формата : Big
Идентификатор кодека : A_AC3
Продолжительность : 1 ч. 31 м.
Вид битрейта : Постоянный
Битрейт : 640 Кбит/сек
Каналы : 6 каналов
Расположение каналов : Front: L C R, Side: L R, LFE
Частота : 48,0 КГц
Битовая глубина : 16 бит
Метод сжатия : С потерями
Размер потока : 419 Мбайт (5%)
Заголовок : Eng | AC3 | 640 Kbps
Язык : English
Default : Нет
Forced : Нет
Аудио #4
Идентификатор : 5
Формат : DTS
Формат/Информация : Digital Theater Systems
Режим : 16
Параметр Endianness формата : Big
Идентификатор кодека : A_DTS
Продолжительность : 1 ч. 31 м.
Вид битрейта : Постоянный
Битрейт : 1509 Кбит/сек
Каналы : 6 каналов
Расположение каналов : Front: L C R, Side: L R, LFE
Частота : 48,0 КГц
Битовая глубина : 24 бит
Метод сжатия : С потерями
Размер потока : 989 Мбайт (11%)
Заголовок : Eng | DTS | 1509 Kbps
Язык : English
Default : Нет
Forced : Нет
Текст #1
Идентификатор : 6
Формат : UTF-8
Идентификатор кодека : S_TEXT/UTF8
Идентификатор кодека/Информация : UTF-8 Plain Text
Заголовок : Full
Язык : Russian
Default : Нет
Forced : Нет
Текст #2
Идентификатор : 7
Формат : UTF-8
Идентификатор кодека : S_TEXT/UTF8
Идентификатор кодека/Информация : UTF-8 Plain Text
Заголовок : Full
Язык : English
Default : Нет
Forced : Нет
Меню
00:00:00.000 : en:00:00:00.000
00:08:23.628 : en:00:08:23.628
00:23:57.561 : en:00:23:57.561
00:41:12.345 : en:00:41:12.345
00:48:03.089 : en:00:48:03.089
01:00:41.721 : en:01:00:41.721
01:12:30.179 : en:01:12:30.179
01:25:55.567 : en:01:25:55.567
Скриншоты:

Время раздачи: 24/7

[Цитировать]



Показать сообщения:    

Текущее время: 09-Дек 20:26

Часовой пояс: UTC + 3


Вы не можете начинать темы
Вы не можете отвечать на сообщения
Вы не можете редактировать свои сообщения
Вы не можете удалять свои сообщения
Вы не можете голосовать в опросах
Вы не можете прикреплять файлы к сообщениям
Вы не можете скачивать файлы

!ВНИМАНИЕ!
Сайт не предоставляет электронные версии произведений, а занимается лишь коллекционированием и каталогизацией ссылок, присылаемых и публикуемых на форуме нашими читателями. Если вы являетесь правообладателем какого-либо представленного материала и не желаете, чтобы ссылка на него находилась в нашем каталоге, свяжитесь с нами, и мы незамедлительно удалим ее. Файлы для обмена на трекере предоставлены пользователями сайта, и администрация не несет ответственности за их содержание. Просьба не заливать файлы, защищенные авторскими правами, а также файлы нелегального содержания!