[ Сегодня идет свободное скачивание без начисления Download ]


Статистика раздачи
Нет
 
   
 
Top  
 
 
-Озеро идолов / Neverlake (2013) HDRip
«Death Lies Beneath»
- Год выпуска: 2013
Производство: Италия / One More Pictures
Жанр: ужасы, драма, детектив
Режиссер: Риккардо Паолетти
Сценарий: Мануэла Каччьямани, Карло Лонго
Продюсер: Мануэла Каччьямани
Актеры: Дейзи Кипинг, Дэвид Брэндон, Джой Тэннер, Мартин Кашироков, Лиза Рут Андреоцци, Элис Беларди, Риккардо Боно, Клаудио Циабатти, Анна Далтон, Давид Фрондароли
Описание фильма:
Навещая своего отца в Тоскане, Дженни отправляется на древнее Озеро Идолов, знаменитое своими ритуалами, которые устраивал на его берегу древний народ этрусков. То, что раньше казалось ей лишь причудливыми легендами и притчами, неожиданно становится частью ее жизни, и Дженни вот-вот захватит водоворот мистических и пугающих событий.
Перевод: одноголосый закадровый, любительский
Озвучка: datynet
Субтитры: отсутствуют
[url=http://multi-up.com/980655]
Дата мировой премьеры: 13 декабря 2013
Продолжительность: 01:29:54
Качество видео: HDRip
Видеокодек: XviD
Битрейт видео: ~2340 kbps
Размер кадра: 720x300
Аудиокодек: mp3, 2 ch
Битрейт аудио: 192 kbps, 48kHz

MediaInfo

Общее
Полное имя                               : Neverlake.2013.HDRip.avi
Формат                                   : AVI
Формат/Информация                        : Audio Video Interleave
Размер файла                             : 1,60 Гбайт
Продолжительность                        : 1 ч. 29 м.
Общий поток                              : 2541 Кбит/сек
Название фильма                          : RARBG.COM - Neverlake.2013.BRRip.XviD.AC3-RARBG
Библиотека кодирования                   : VirtualDub build 34753/release
Примечание                               : RARBG.COM - Neverlake.2013.BRRip.XviD.AC3-RARBG
Видео
Идентификатор                            : 0
Формат                                   : MPEG-4 Visual
Профиль формата                          : Simple@L5
Параметр BVOP формата                    : Нет
Параметр QPel формата                    : Нет
Параметр GMC формата                     : Без точки перехода
Параметр матрицы формата                 : Default (H.263)
Идентификатор кодека                     : XVID
Идентификатор кодека/Подсказка           : XviD
Продолжительность                        : 1 ч. 29 м.
Битрейт                                  : 2340 Кбит/сек
Ширина                                   : 720 пикселей
Высота                                   : 300 пикселей
Соотношение сторон                       : 2,35:1
Частота кадров                           : 24,000 кадра/сек
Цветовое пространство                    : YUV
Субдискретизация насыщенности            : 4:2:0
Битовая глубина                          : 8 бит
Тип развёртки                            : Прогрессивная
Метод сжатия                             : С потерями
Бит/(Пиксели*Кадры)                      : 0.451
Размер потока                            : 1,47 Гбайт (92%)
Библиотека кодирования                   : Lavc55.61.100
Аудио
Идентификатор                            : 1
Формат                                   : MPEG Audio
Версия формата                           : Version 1
Профиль формата                          : Layer 3
Идентификатор кодека                     : 55
Идентификатор кодека/Подсказка           : MP3
Продолжительность                        : 1 ч. 29 м.
Вид битрейта                             : Постоянный
Битрейт                                  : 192 Кбит/сек
Каналы                                   : 2 канала
Частота                                  : 44,1 КГц
Метод сжатия                             : С потерями
Размер потока                            : 123 Мбайт (8%)
Выравнивание                             : Разделение по промежуткам
Продолжительность промежутка             : 42  мс. (1,00 видеокадр)
Время предзагрузки промежутка            : 500  мс.
Скриншоты:

[Цитировать]



Показать сообщения:    

Текущее время: 09-Дек 20:29

Часовой пояс: UTC + 3


Вы не можете начинать темы
Вы не можете отвечать на сообщения
Вы не можете редактировать свои сообщения
Вы не можете удалять свои сообщения
Вы не можете голосовать в опросах
Вы не можете прикреплять файлы к сообщениям
Вы не можете скачивать файлы

!ВНИМАНИЕ!
Сайт не предоставляет электронные версии произведений, а занимается лишь коллекционированием и каталогизацией ссылок, присылаемых и публикуемых на форуме нашими читателями. Если вы являетесь правообладателем какого-либо представленного материала и не желаете, чтобы ссылка на него находилась в нашем каталоге, свяжитесь с нами, и мы незамедлительно удалим ее. Файлы для обмена на трекере предоставлены пользователями сайта, и администрация не несет ответственности за их содержание. Просьба не заливать файлы, защищенные авторскими правами, а также файлы нелегального содержания!