[ Сегодня идет свободное скачивание без начисления Download ]


Статистика раздачи
Нет
 
   
 
Top  
 
 
-300 спартанцев: Расцвет империи / 300: Rise of an Empire (2014) BDRip [1080p] 3D [Вертикальная анаморфная стереопара]- Год выпуска: 2014
Производство: США / Warner Bros. Pictures
Жанр: Фэнтези, боевик, драма, военный
Перевод: Дублированный [iTunes]
Субтитры: Вшитые отключаемые
Язык субтитров: Русский (форсированные, полные), украинский (форсированные, полные), английский (Full, SDH)
Режиссер: Ноам Мурро
Продюсер: Марк Кантон, Берни Голдманн, Джанни Нуннари
Актеры: Салливан Степлтон, Ева Грин, Джек О’Коннелл, Каллэн Мулвей, Ганс Мэтисон, Родриго Санторо, Лина Хиди, Дэвид Уэнэм, Эндрю Тирнан, Эндрю Плевин
Описание фильма:
После победы над царем Леонидом персидская армия во главе с Ксерксом движется на юг. На её пути оказывается флот Афин под руководством адмирала Фемистокла. Силы противников не равны, и Фемистокл вынужден вступить в союз с заклятым врагом афинского государства Спартой. Только объединившись у враждующих полисов-государств есть шанс что-то противопоставить могущественному Ксерксу.

Дата мировой премьеры: 5 марта 2014
Дата российской премьеры: 6 марта 2014, «Каро-Премьер»
Дата выхода DVD/Blu-Ray релиза: 3 июля 2014, «CP Дистрибуция»
Продолжительность: 01:42:35
Качество видео: BDRip [1080p](by Ash61)
Видеокодек: MPEG-4 AVC/H.264
Битрейт видео: ~11217 kbps
Размер кадра: 1920x1080
Аудио 1: Русский: AC-3, 48.0 KHz, 6 ch, 384 Kbps, CBR
Аудио 2: Украинский: AC-3, 48.0 KHz, 2 ch, 192 Kbps, CBR
Аудио 3: Английский: AC-3, 48.0 KHz, 6 ch, 640 Kbps, CBR
Сэмпл: Скачать

MediaInfo:

Общее
Уникальный идентификатор : 220631182440359571625017825436445776935 (0xA5FC0524CC536F0C98C6FEF218551C27)
Полное имя : D:\Фильмы 3D\300.Spartancev.Rassvet.imperii.2014.BDRip.1080p.3D-HalfOU.mkv
Формат : Matroska
Версия формата : Version 2
Размер файла : 8,91 Гбайт
Продолжительность : 1 ч. 42 м.
Общий поток : 12,4 Мбит/сек
Название фильма : 300 спартанцев: Расцвет империи / 300: Rise of an Empire (2014) 3D
Дата кодирования : UTC 2014-06-07 21:07:24
Программа кодирования : mkvmerge v5.8.0 ('No Sleep / Pillow') built on Sep 2 2012 15:37:04
Библиотека кодирования : libebml v1.2.3 + libmatroska v1.3.0
Видео
Идентификатор : 1
Формат : AVC
Формат/Информация : Advanced Video Codec
Профиль формата : [email protected]
Параметр CABAC формата : Да
Параметр ReFrames формата : 4 кадра
Идентификатор кодека : V_MPEG4/ISO/AVC
Продолжительность : 1 ч. 42 м.
Битрейт : 11,0 Мбит/сек
Ширина : 1920 пикселей
Высота : 1080 пикселей
Соотношение сторон : 16:9
Режим частоты кадров : Постоянный
Частота кадров : 23,976 кадра/сек
Цветовое пространство : YUV
Субдискретизация насыщенности : 4:2:0
Битовая глубина : 8 бит
Тип развёртки : Прогрессивная
Бит/(Пиксели*Кадры) : 0.221
Размер потока : 7,86 Гбайт (88%)
Заголовок : BDRip by Ash61
Библиотека кодирования : x264 core 129 r2245 bc13772
Настройки программы : cabac=1 / ref=4 / deblock=1:-3:-3 / analyse=0x3:0x113 / me=umh / subme=10 / psy=1 / psy_rd=1.00:0.15 / mixed_ref=1 / me_range=32 / chroma_me=1 / trellis=2 / 8x8dct=1 / cqm=0 / deadzone=21,11 / fast_pskip=1 / chroma_qp_offset=-3 / threads=12 / lookahead_threads=2 / sliced_threads=0 / nr=0 / decimate=1 / interlaced=0 / bluray_compat=0 / constrained_intra=0 / bframes=10 / b_pyramid=2 / b_adapt=2 / b_bias=0 / direct=3 / weightb=1 / open_gop=0 / weightp=2 / keyint=250 / keyint_min=23 / scenecut=40 / intra_refresh=0 / rc_lookahead=60 / rc=crf / mbtree=1 / crf=17.0 / qcomp=0.70 / qpmin=0 / qpmax=69 / qpstep=4 / vbv_maxrate=40000 / vbv_bufsize=30000 / crf_max=0.0 / nal_hrd=none / frame-packing=4 / ip_ratio=1.40 / aq=1:0.70
Язык : English
Default : Да
Forced : Нет
Аудио #1
Идентификатор : 2
Формат : AC-3
Формат/Информация : Audio Coding 3
Расширение режима : CM (complete main)
Параметр Endianness формата : Big
Идентификатор кодека : A_AC3
Продолжительность : 1 ч. 42 м.
Вид битрейта : Постоянный
Битрейт : 384 Кбит/сек
Каналы : 6 каналов
Расположение каналов : Front: L C R, Side: L R, LFE
Частота : 48,0 КГц
Битовая глубина : 16 бит
Метод сжатия : С потерями
Размер потока : 282 Мбайт (3%)
Заголовок : Дубляж - iTunes
Язык : Russian
Default : Да
Forced : Нет
Аудио #2
Идентификатор : 3
Формат : AC-3
Формат/Информация : Audio Coding 3
Расширение режима : CM (complete main)
Параметр Endianness формата : Big
Идентификатор кодека : A_AC3
Продолжительность : 1 ч. 42 м.
Вид битрейта : Постоянный
Битрейт : 192 Кбит/сек
Каналы : 2 канала
Расположение каналов : Front: L R
Частота : 48,0 КГц
Битовая глубина : 16 бит
Метод сжатия : С потерями
Размер потока : 141 Мбайт (2%)
Заголовок : Дубляж - iTunes
Язык : Ukrainian
Default : Нет
Forced : Нет
Аудио #3
Идентификатор : 4
Формат : AC-3
Формат/Информация : Audio Coding 3
Расширение режима : CM (complete main)
Параметр Endianness формата : Big
Идентификатор кодека : A_AC3
Продолжительность : 1 ч. 42 м.
Вид битрейта : Постоянный
Битрейт : 640 Кбит/сек
Каналы : 6 каналов
Расположение каналов : Front: L C R, Side: L R, LFE
Частота : 48,0 КГц
Битовая глубина : 16 бит
Метод сжатия : С потерями
Размер потока : 470 Мбайт (5%)
Заголовок : Original - BD 3D
Язык : English
Default : Нет
Forced : Нет
Текст #1
Идентификатор : 5
Формат : UTF-8
Идентификатор кодека : S_TEXT/UTF8
Идентификатор кодека/Информация : UTF-8 Plain Text
Заголовок : Форсированные
Язык : Russian
Default : Да
Forced : Нет
Текст #2
Идентификатор : 6
Формат : UTF-8
Идентификатор кодека : S_TEXT/UTF8
Идентификатор кодека/Информация : UTF-8 Plain Text
Заголовок : Полные
Язык : Russian
Default : Нет
Forced : Нет
Текст #3
Идентификатор : 7
Формат : UTF-8
Идентификатор кодека : S_TEXT/UTF8
Идентификатор кодека/Информация : UTF-8 Plain Text
Заголовок : Форсированные
Язык : Ukrainian
Default : Нет
Forced : Нет
Текст #4
Идентификатор : 8
Формат : UTF-8
Идентификатор кодека : S_TEXT/UTF8
Идентификатор кодека/Информация : UTF-8 Plain Text
Заголовок : Полные
Язык : Ukrainian
Default : Нет
Forced : Нет
Текст #5
Идентификатор : 9
Формат : UTF-8
Идентификатор кодека : S_TEXT/UTF8
Идентификатор кодека/Информация : UTF-8 Plain Text
Заголовок : Full
Язык : English
Default : Нет
Forced : Нет
Текст #6
Идентификатор : 10
Формат : UTF-8
Идентификатор кодека : S_TEXT/UTF8
Идентификатор кодека/Информация : UTF-8 Plain Text
Заголовок : SDH
Язык : English
Default : Нет
Forced : Нет
Меню
00:00:00.000 : :1
00:10:26.376 : :2
00:20:54.628 : :3
00:31:15.290 : :4
00:40:58.498 : :5
00:50:50.714 : :6
01:00:05.435 : :7
01:09:51.813 : :8
01:19:51.245 : :9
01:31:07.295 : :10
01:33:57.131 : :11

Avdump:

File: D:\Фильмы 3D\300.Spartancev.Rassvet.imperii.2014.BDRip.1080p.3D-HalfOU.mkv
Duration: 01:42:36 (6155.74)
Track #1: video (BDRip by Ash61)
lang: Unknown (1)
codc: V_MPEG4/ISO/AVC -> H264/AVC (22)
reso: 1920x1080 -> 16:9
fram: 23.976 fps
rate: 11217 kbps (11216.6)
dura: 01:42:36 (6155.69)
size: 8.04 GB (8630772352)
Track #2: audio (???????????? - iTunes)
lang: rus -> Russian (15)
codc: A_AC3 -> AC3 (2)
chan: 6 -> 5.1 Surround
samp: 48000 Hz
rate: 384 kbps (384.04)
dura: 01:42:36 (6155.52)
size: 281.81 MB (295495678)
Track #3: audio (???????????? - iTunes)
lang: ukr -> Unknown (1)
codc: A_AC3 -> AC3 (2)
chan: 2 -> Stereo
samp: 48000 Hz
rate: 192 kbps (192.04)
dura: 01:42:36 (6155.52)
size: 140.92 MB (147763938)
Track #4: audio (Original - BD 3D)
lang: Unknown (1)
codc: A_AC3 -> AC3 (2)
chan: 6 -> 5.1 Surround
samp: 48000 Hz
rate: 640 kbps (640.06)
dura: 01:42:36 (6155.52)
size: 469.67 MB (492485638)
Track #5: subtitles (??????????????????????????)
lang: rus -> Russian (15)
type: S_TEXT/UTF8 -> SRT (3)
size: 112.00 B (112)
Track #6: subtitles (????????????)
lang: rus -> Russian (15)
type: S_TEXT/UTF8 -> SRT (3)
size: 41.54 KB (42534)
Track #7: subtitles (??????????????????????????)
lang: ukr -> Unknown (1)
type: S_TEXT/UTF8 -> SRT (3)
size: 110.00 B (110)
Track #8: subtitles (????????????)
lang: ukr -> Unknown (1)
type: S_TEXT/UTF8 -> SRT (3)
size: 50.57 KB (51781)
Track #9: subtitles (Full)
lang: Unknown (1)
type: S_TEXT/UTF8 -> SRT (3)
size: 29.81 KB (30522)
Track #10: subtitles (SDH)
lang: Unknown (1)
type: S_TEXT/UTF8 -> SRT (3)
size: 31.96 KB (32731)
Sizes: (check sanity)
disk: 8.91 GB (9568576016)
trac: 931.49 MB (976740804) [based on track size]
bitr: 8.91 GB (9566544076) [based on bitrate]
tdif: 8.00 GB (8591835212) 89.79%
bdif: 1.94 MB (2031939) 0.02%
Скриншоты:
Время раздачи: 24/7
(5 скачавших)

[Цитировать]



Показать сообщения:    

Текущее время: 04-Дек 13:18

Часовой пояс: UTC + 3


Вы не можете начинать темы
Вы не можете отвечать на сообщения
Вы не можете редактировать свои сообщения
Вы не можете удалять свои сообщения
Вы не можете голосовать в опросах
Вы не можете прикреплять файлы к сообщениям
Вы не можете скачивать файлы

!ВНИМАНИЕ!
Сайт не предоставляет электронные версии произведений, а занимается лишь коллекционированием и каталогизацией ссылок, присылаемых и публикуемых на форуме нашими читателями. Если вы являетесь правообладателем какого-либо представленного материала и не желаете, чтобы ссылка на него находилась в нашем каталоге, свяжитесь с нами, и мы незамедлительно удалим ее. Файлы для обмена на трекере предоставлены пользователями сайта, и администрация не несет ответственности за их содержание. Просьба не заливать файлы, защищенные авторскими правами, а также файлы нелегального содержания!