[ Сегодня идет свободное скачивание без начисления Download ]


Статистика раздачи
Нет
 
   
 
Top  
 
 
-Выживут только любовники / Only Lovers Left Alive (2013) BDRip [1080p] [Line]- Год выпуска: 2013
Производство: Великобритания, Германия, Франция, Кипр, США
Жанр: Фантастика, триллер, драма
Перевод: Дублированный (Чистый звук) (НТВ+)
Субтитры: Отсутствуют
Режиссер: Джим Джармуш
Продюсер: Рейнхард Брюндиг, Джереми Томас, Закария Алауи
Актеры: Том Хиддлстон, Тильда Суинтон, Миа Васиковска, Джон Хёрт, Антон Ельчин, Джеффри Райт, Слиман Дази, Картер Логан, Али Эмин, Ясмин Хамдан
Описание фильма:
Адам — талантливый андерграундный музыкант, живет в мрачном Детройте, одевается в стиле 60-х и не выходит днем из дома. Он не в восторге от того, куда катится мир, и подумывает о способах самоубийства. В теплом Танжере живет его загадочная подружка Ева, которая стильно одевается, обожает поэзию и по вечерам ужинает с Кристофером Марло. Адаму и Еве — более тысячи лет. Пару веков назад они договорились не убивать ради свежей крови людей, а добывать ее в больницах. Не так давно они решили пожить раздельно, но хватило их ненадолго, и вот уже Ева выходит из самолета в Детройте. Они оба чувствуют, что должно произойти что-то опасное. Вскоре в город приезжает младшая сестра Евы — необузданная безбашенная вампирша, не способная контролировать эмоции. В городе начинаются странные смерти, Адам и Ева вынуждены бежать в Алжир, но череда неприятностей, кажется, только начинается: похоже, конец света все-таки настает и смерть уже не за горами… Смерть? Не рановато ли?..

Дата мировой премьеры: 25 мая 2013
Дата российской премьеры: 10 апреля 2014, «Каравелла DDC»
Дата украинской премьеры: 10 апреля 2014, «Каравелла DDC Украина»
Продолжительность: 02:03:15
Качество видео: BDRip [1080p] [Profile LQ]
Видеокодек: MPEG-4 AVC/H.264
Битрейт видео: ~ 8403 Kbps
Размер кадра: 1920x1040
Аудио #1: Русский: AC-3, 48.0 KHz, 6 ch, 384 Kbps, CBR
Аудио #2: Английский: DTS, 48.0 KHz, 6 ch, 1509 Kbps, CBR
Сэмпл: Скачать

MediaInfo:

Общее
Уникальный идентификатор : 217675561313383052935786850278988283552 (0xA3C2C9C5798453BAAF19AAC2483F7EA0)
Полное имя : D:\Фильмы\Vyzhivut.toljko.lyubovniki.2013.D.BDRip.1080p.mkv
Формат : Matroska
Версия формата : Version 4 / Version 2
Размер файла : 8,86 Гбайт
Продолжительность : 2 ч. 3 м.
Общий поток : 10,3 Мбит/сек
Дата кодирования : UTC 2014-06-19 02:31:18
Программа кодирования : mkvmerge v6.1.0 ('Old Devil') built on Mar 4 2013 09:10:42
Библиотека кодирования : libebml v1.3.0 + libmatroska v1.4.0
Видео
Идентификатор : 1
Формат : AVC
Формат/Информация : Advanced Video Codec
Профиль формата : High@L4.1
Параметр CABAC формата : Да
Параметр ReFrames формата : 4 кадра
Идентификатор кодека : V_MPEG4/ISO/AVC
Продолжительность : 2 ч. 3 м.
Битрейт : 8403 Кбит/сек
Ширина : 1920 пикселей
Высота : 1040 пикселей
Соотношение сторон : 1,85:1
Режим частоты кадров : Постоянный
Частота кадров : 23,976 кадра/сек
Цветовое пространство : YUV
Субдискретизация насыщенности : 4:2:0
Битовая глубина : 8 бит
Тип развёртки : Прогрессивная
Бит/(Пиксели*Кадры) : 0.176
Размер потока : 7,05 Гбайт (80%)
Библиотека кодирования : x264 core 142 r2431 ac76440
Настройки программы : cabac=1 / ref=4 / deblock=1:0:0 / analyse=0x3:0x113 / me=umh / subme=8 / psy=1 / psy_rd=1.00:0.00 / mixed_ref=1 / me_range=16 / chroma_me=1 / trellis=1 / 8x8dct=1 / cqm=0 / deadzone=21,11 / fast_pskip=1 / chroma_qp_offset=-2 / threads=12 / lookahead_threads=2 / sliced_threads=0 / nr=0 / decimate=1 / interlaced=0 / bluray_compat=0 / constrained_intra=0 / bframes=3 / b_pyramid=2 / b_adapt=2 / b_bias=0 / direct=3 / weightb=1 / open_gop=0 / weightp=2 / keyint=240 / keyint_min=24 / scenecut=40 / intra_refresh=0 / rc_lookahead=50 / rc=2pass / mbtree=1 / bitrate=8403 / ratetol=1.0 / qcomp=0.60 / qpmin=0 / qpmax=69 / qpstep=4 / cplxblur=20.0 / qblur=0.5 / ip_ratio=1.40 / aq=1:1.00
Язык : English
Default : Да
Forced : Нет
Аудио #1
Идентификатор : 2
Формат : AC-3
Формат/Информация : Audio Coding 3
Расширение режима : CM (complete main)
Параметр Endianness формата : Big
Идентификатор кодека : A_AC3
Продолжительность : 2 ч. 3 м.
Вид битрейта : Постоянный
Битрейт : 384 Кбит/сек
Каналы : 6 каналов
Расположение каналов : Front: L C R, Side: L R, LFE
Частота : 48,0 КГц
Битовая глубина : 16 бит
Метод сжатия : С потерями
Размер потока : 339 Мбайт (4%)
Язык : Russian
Default : Да
Forced : Нет
Аудио #2
Идентификатор : 3
Формат : DTS
Формат/Информация : Digital Theater Systems
Режим : 16
Параметр Endianness формата : Big
Идентификатор кодека : A_DTS
Продолжительность : 2 ч. 3 м.
Вид битрейта : Постоянный
Битрейт : 1509 Кбит/сек
Каналы : 6 каналов
Расположение каналов : Front: L C R, Side: L R, LFE
Частота : 48,0 КГц
Битовая глубина : 24 бит
Метод сжатия : С потерями
Размер потока : 1,30 Гбайт (15%)
Язык : English
Default : Нет
Forced : Нет
Меню
00:00:00.000 : en:00:00:00.000
00:11:04.414 : en:00:11:04.414
00:21:13.689 : en:00:21:13.689
00:27:47.708 : en:00:27:47.708
00:35:23.455 : en:00:35:23.455
00:42:27.503 : en:00:42:27.503
00:49:35.681 : en:00:49:35.681
00:58:32.926 : en:00:58:32.926
01:05:55.827 : en:01:05:55.827
01:15:24.520 : en:01:15:24.520
01:23:29.254 : en:01:23:29.254
01:28:57.082 : en:01:28:57.082
01:36:46.592 : en:01:36:46.592
01:47:52.800 : en:01:47:52.800
01:56:38.325 : en:01:56:38.325

Avdump:

File: D:\Фильмы\Vyzhivut.toljko.lyubovniki.2013.D.BDRip.1080p.mkv
Duration: 02:03:16 (7395.93)
Track #1: video
lang: Unknown (1)
codc: V_MPEG4/ISO/AVC -> H264/AVC (22)
reso: 1920x1040 -> Unknown (aka not common)
fram: hybrid (vfr)
rate: 8392 kbps (8392.35)
dura: 02:03:16 (7395.89)
size: 7.23 GB (7758611777)
Track #2: audio
lang: rus -> Russian (15)
codc: A_AC3 -> AC3 (2)
chan: 6 -> 5.1 Surround
samp: 48000 Hz
rate: 384 kbps (384.04)
dura: 02:03:15 (7395.49)
size: 338.57 MB (355019188)
Track #3: audio
lang: Unknown (1)
codc: A_DTS -> DTS (13)
chan: 6 -> 5.1 Surround
samp: 48000 Hz
rate: 1509 kbps (1509.10)
dura: 02:03:16 (7395.55)
size: 1.30 GB (1395076930)
Sizes: (check sanity)
disk: 8.86 GB (9511044088)
trac: 4.86 GB (5213740599) [based on track size]
bitr: 8.86 GB (9508791410) [based on bitrate]
tdif: 4.00 GB (4297303489) 45.18%
bdif: 2.15 MB (2252677) 0.02%
Скриншоты:
Время раздачи: 24/7
(до 5 скачавших)

[Цитировать]



Показать сообщения:    

Текущее время: 08-Дек 14:54

Часовой пояс: UTC + 3


Вы не можете начинать темы
Вы не можете отвечать на сообщения
Вы не можете редактировать свои сообщения
Вы не можете удалять свои сообщения
Вы не можете голосовать в опросах
Вы не можете прикреплять файлы к сообщениям
Вы не можете скачивать файлы

!ВНИМАНИЕ!
Сайт не предоставляет электронные версии произведений, а занимается лишь коллекционированием и каталогизацией ссылок, присылаемых и публикуемых на форуме нашими читателями. Если вы являетесь правообладателем какого-либо представленного материала и не желаете, чтобы ссылка на него находилась в нашем каталоге, свяжитесь с нами, и мы незамедлительно удалим ее. Файлы для обмена на трекере предоставлены пользователями сайта, и администрация не несет ответственности за их содержание. Просьба не заливать файлы, защищенные авторскими правами, а также файлы нелегального содержания!