[ Сегодня идет свободное скачивание без начисления Download ]


Статистика раздачи
Нет
 
   
 
Top  
 
 
-Выживут только любовники / Only Lovers Left Alive (2013) BDRip [720p] [Line]- Год выпуска: 2013
Производство: Великобритания, Германия, Франция, Кипр, США
Жанр: Фантастика, триллер, драма
Перевод: Дублированный (Чистый звук) (НТВ+)
Субтитры: Отсутствуют
Режиссер: Джим Джармуш
Продюсер: Рейнхард Брюндиг, Джереми Томас, Закария Алауи
Актеры: Том Хиддлстон, Тильда Суинтон, Миа Васиковска, Джон Хёрт, Антон Ельчин, Джеффри Райт, Слиман Дази, Картер Логан, Али Эмин, Ясмин Хамдан
Описание фильма:
Адам — талантливый андерграундный музыкант, живет в мрачном Детройте, одевается в стиле 60-х и не выходит днем из дома. Он не в восторге от того, куда катится мир, и подумывает о способах самоубийства. В теплом Танжере живет его загадочная подружка Ева, которая стильно одевается, обожает поэзию и по вечерам ужинает с Кристофером Марло. Адаму и Еве — более тысячи лет. Пару веков назад они договорились не убивать ради свежей крови людей, а добывать ее в больницах. Не так давно они решили пожить раздельно, но хватило их ненадолго, и вот уже Ева выходит из самолета в Детройте. Они оба чувствуют, что должно произойти что-то опасное. Вскоре в город приезжает младшая сестра Евы — необузданная безбашенная вампирша, не способная контролировать эмоции. В городе начинаются странные смерти, Адам и Ева вынуждены бежать в Алжир, но череда неприятностей, кажется, только начинается: похоже, конец света все-таки настает и смерть уже не за горами… Смерть? Не рановато ли?..

Дата мировой премьеры: 25 мая 2013
Дата российской премьеры: 10 апреля 2014, «Каравелла DDC»
Дата украинской премьеры: 10 апреля 2014, «Каравелла DDC Украина»
Продолжительность: 02:03:15
Качество видео: BDRip [720p] [Profile LQ]
Видеокодек: MPEG-4 AVC/H.264
Битрейт видео: ~ 5232 Kbps
Размер кадра: 1280x690
Аудио #1: Русский: AC-3, 48.0 KHz, 6 ch, 384 Kbps, CBR
Аудио #2: Английский: DTS, 48.0 KHz, 6 ch, 1509 Kbps, CBR
Сэмпл: Скачать

MediaInfo:

Общее
Уникальный идентификатор : 220504549817433922978423129081745787612 (0xA5E3A1AC63AA9962BE511BBAB4E04ADC)
Полное имя : D:\Фильмы\Vyzhivut.toljko.lyubovniki.2013.D.BDRip.720p.mkv
Формат : Matroska
Версия формата : Version 2
Размер файла : 6,26 Гбайт
Продолжительность : 2 ч. 3 м.
Общий поток : 7270 Кбит/сек
Дата кодирования : UTC 2014-06-18 21:31:55
Программа кодирования : mkvmerge v5.5.0 ('Healer') built on Apr 6 2012 21:43:24
Библиотека кодирования : libebml v1.2.3 + libmatroska v1.3.0
Видео
Идентификатор : 1
Формат : AVC
Формат/Информация : Advanced Video Codec
Профиль формата : High@L4.1
Параметр CABAC формата : Да
Параметр ReFrames формата : 4 кадра
Режим смешивания : Header stripping
Идентификатор кодека : V_MPEG4/ISO/AVC
Продолжительность : 2 ч. 3 м.
Битрейт : 5232 Кбит/сек
Номинальный битрейт : 5500 Кбит/сек
Ширина : 1280 пикселей
Высота : 690 пикселей
Соотношение сторон : 1,85:1
Режим частоты кадров : Постоянный
Частота кадров : 23,976 кадра/сек
Цветовое пространство : YUV
Субдискретизация насыщенности : 4:2:0
Битовая глубина : 8 бит
Тип развёртки : Прогрессивная
Бит/(Пиксели*Кадры) : 0.247
Размер потока : 4,51 Гбайт (72%)
Библиотека кодирования : x264 core 142 r2431 ac76440
Настройки программы : cabac=1 / ref=4 / deblock=1:0:0 / analyse=0x3:0x113 / me=umh / subme=8 / psy=1 / psy_rd=1.00:0.00 / mixed_ref=1 / me_range=16 / chroma_me=1 / trellis=1 / 8x8dct=1 / cqm=0 / deadzone=21,11 / fast_pskip=1 / chroma_qp_offset=-2 / threads=12 / lookahead_threads=2 / sliced_threads=0 / nr=0 / decimate=1 / interlaced=0 / bluray_compat=0 / constrained_intra=0 / bframes=3 / b_pyramid=2 / b_adapt=2 / b_bias=0 / direct=3 / weightb=1 / open_gop=0 / weightp=2 / keyint=240 / keyint_min=24 / scenecut=40 / intra_refresh=0 / rc_lookahead=50 / rc=abr / mbtree=1 / bitrate=5500 / ratetol=1.0 / qcomp=0.60 / qpmin=0 / qpmax=69 / qpstep=4 / vbv_maxrate=62500 / vbv_bufsize=78125 / nal_hrd=none / filler=0 / ip_ratio=1.40 / aq=1:1.00
Язык : English
Default : Да
Forced : Нет
Основные цвета : BT.709
Характеристики трансфера : BT.709
Коэффициенты матрицы : BT.709
Аудио #1
Идентификатор : 2
Формат : AC-3
Формат/Информация : Audio Coding 3
Расширение режима : CM (complete main)
Параметр Endianness формата : Big
Режим смешивания : Header stripping
Идентификатор кодека : A_AC3
Продолжительность : 2 ч. 3 м.
Вид битрейта : Постоянный
Битрейт : 384 Кбит/сек
Каналы : 6 каналов
Расположение каналов : Front: L C R, Side: L R, LFE
Частота : 48,0 КГц
Битовая глубина : 16 бит
Метод сжатия : С потерями
Задержка видео : -83 мс.
Размер потока : 339 Мбайт (5%)
Заголовок : Russian AC3 384 kb/s
Язык : Russian
Default : Да
Forced : Нет
Аудио #2
Идентификатор : 3
Формат : DTS
Формат/Информация : Digital Theater Systems
Режим : 16
Параметр Endianness формата : Big
Режим смешивания : Header stripping
Идентификатор кодека : A_DTS
Продолжительность : 2 ч. 3 м.
Вид битрейта : Постоянный
Битрейт : 1509 Кбит/сек
Каналы : 6 каналов
Расположение каналов : Front: L C R, Side: L R, LFE
Частота : 48,0 КГц
Битовая глубина : 24 бит
Метод сжатия : С потерями
Размер потока : 1,30 Гбайт (21%)
Заголовок : English DTS 1510 kb/s
Язык : English
Default : Нет
Forced : Нет
Меню
00:00:00.000 : :00:00:00.000
00:11:04.539 : :00:11:04.414
00:21:13.772 : :00:21:13.689
00:27:47.875 : :00:27:47.708
00:35:23.580 : :00:35:23.455
00:42:27.628 : :00:42:27.503
00:49:35.890 : :00:49:35.681
00:58:33.009 : :00:58:32.926
01:05:56.035 : :01:05:55.827
01:15:24.603 : :01:15:24.520
01:23:29.421 : :01:23:29.254
01:28:57.207 : :01:28:57.082
01:36:46.759 : :01:36:46.592
01:47:53.008 : :01:47:52.800
01:56:38.450 : :01:56:38.325

Avdump:

File: D:\Фильмы\Vyzhivut.toljko.lyubovniki.2013.D.BDRip.720p.mkv
Duration: 02:03:16 (7396.01)
Track #1: video
lang: Unknown (1)
codc: V_MPEG4/ISO/AVC -> H264/AVC (22)
reso: 1280x690 -> Unknown (aka not common)
fram: 23.976 fps
rate: 5378 kbps (5378.22)
dura: 02:03:16 (7395.89)
size: 4.63 GB (4972088396)
Track #2: audio (Russian AC3 384 kb/s)
lang: rus -> Russian (15)
codc: A_AC3 -> AC3 (2)
chan: 6 -> 5.1 Surround
samp: 48000 Hz
rate: 384 kbps (383.53)
dura: 02:03:16 (7395.55)
size: 338.13 MB (354556292)
Track #3: audio (English DTS 1510 kb/s)
lang: Unknown (1)
codc: A_DTS -> DTS (13)
chan: 6 -> 5.1 Surround
samp: 48000 Hz
rate: 1506 kbps (1506.11)
dura: 02:03:15 (7395.48)
size: 1.30 GB (1392302914)
Sizes: (check sanity)
disk: 6.26 GB (6721212476)
trac: 2.26 GB (2423980306) [based on track size]
bitr: 6.26 GB (6719041164) [based on bitrate]
tdif: 4.00 GB (4297232170) 63.93%
bdif: 2.07 MB (2171311) 0.03%
Скриншоты:
Время раздачи: 24/7
(до 5 скачавших)

[Цитировать]



Показать сообщения:    

Текущее время: 07-Дек 13:32

Часовой пояс: UTC + 3


Вы не можете начинать темы
Вы не можете отвечать на сообщения
Вы не можете редактировать свои сообщения
Вы не можете удалять свои сообщения
Вы не можете голосовать в опросах
Вы не можете прикреплять файлы к сообщениям
Вы не можете скачивать файлы

!ВНИМАНИЕ!
Сайт не предоставляет электронные версии произведений, а занимается лишь коллекционированием и каталогизацией ссылок, присылаемых и публикуемых на форуме нашими читателями. Если вы являетесь правообладателем какого-либо представленного материала и не желаете, чтобы ссылка на него находилась в нашем каталоге, свяжитесь с нами, и мы незамедлительно удалим ее. Файлы для обмена на трекере предоставлены пользователями сайта, и администрация не несет ответственности за их содержание. Просьба не заливать файлы, защищенные авторскими правами, а также файлы нелегального содержания!