[ Сегодня идет свободное скачивание без начисления Download ]


Статистика раздачи
Нет
 
   
 
Top  
 
 
- Страх сцены / Stage Fright (2014) BDRip [720p] [VO]- Год выпуска: 2014
Производство: Канада
Жанр: мюзикл, ужасы, триллер
Описание фильма:
Кровожадный киллер в маске, вооруженный тесаком, терроризирует музыкально-театральную труппу, репетирующую новый спектакль, поскольку люто ненавидит мюзиклы. Кровь хлещет ручьями, отрезанные органы летят в камеру, настоящий праздник для любителей слэшеров.
Режиссер: Джером Сэйбл
Продюсер: Йонас Белл Пашт, Эри Лантос, Аарон Барнетт
Актеры: Элли МакДональд, Мит Лоаф, Дуглас Смит, Минни Драйвер, Брэндон Юрановитц, Мелани Лишман, Томас Алдерсон, Кент Нолан, Эфраим Эллис, Лиэнн Миллер
Продолжительность: 01:28:16
Качество видео: BDRip [Profile LQ]
Перевод: Любительский одноголосый (R.A.I.M)
Язык субтитров: нет-
Дата мировой премьеры: 10 марта 2014
Дата премьеры (РФ): 20 ноября 2014, «Cinema Prestige»-Видеокодек: MPEG-4 AVC/H.264
Битрейт видео: ~5 574 Kbps
Размер кадра: 1280x536
Аудио:
1. Russian: AC3,448 kb/s (2 ch)
2. English: DTS, 1510 Kbps (6 ch)

MediaInfo:

Общее
Уникальный идентификатор : 190352147693461463039153014378540159703 (0x8F347D78A4C5D8D7AB10C1EE1705D2D7)
Полное имя : F\Страх.сцены_Stage Fright.2014.BDRip.NNM-CLUB.mkv
Формат : Matroska
Версия формата : Version 2
Размер файла : 4,64 Гбайт
Продолжительность : 1 ч. 28 м.
Общий поток : 7532 Кбит/сек
Название фильма : Страх.сцены_Stage Fright.2014.BDRip.NNM-CLUB
Дата кодирования : UTC 2014-06-19 17:04:23
Программа кодирования : mkvmerge v5.8.0 ('No Sleep / Pillow') built on Sep 2 2012 15:37:04
Библиотека кодирования : libebml v1.2.3 + libmatroska v1.3.0
Видео
Идентификатор : 1
Формат : AVC
Формат/Информация : Advanced Video Codec
Профиль формата : High@L4.1
Параметр CABAC формата : Да
Параметр ReFrames формата : 5 кадров
Идентификатор кодека : V_MPEG4/ISO/AVC
Продолжительность : 1 ч. 28 м.
Битрейт : 5574 Кбит/сек
Ширина : 1280 пикселей
Высота : 536 пикселей
Соотношение сторон : 2,40:1
Режим частоты кадров : Постоянный
Частота кадров : 23,976 кадра/сек
Цветовое пространство : YUV
Субдискретизация насыщенности : 4:2:0
Битовая глубина : 8 бит
Тип развёртки : Прогрессивная
Бит/(Пиксели*Кадры) : 0.339
Размер потока : 3,34 Гбайт (72%)
Заголовок : Страх.сцены_Stage Fright.2014.BDRip.NNM-CLUB
Библиотека кодирования : x264 core 142 r2431 ac76440
Настройки программы : cabac=1 / ref=5 / deblock=1:0:0 / analyse=0x3:0x133 / me=umh / subme=7 / psy=1 / psy_rd=1.00:0.00 / mixed_ref=1 / me_range=16 / chroma_me=1 / trellis=1 / 8x8dct=1 / cqm=0 / deadzone=21,11 / fast_pskip=0 / chroma_qp_offset=-2 / threads=18 / lookahead_threads=3 / sliced_threads=0 / nr=0 / decimate=1 / interlaced=0 / bluray_compat=0 / constrained_intra=0 / bframes=3 / b_pyramid=2 / b_adapt=1 / b_bias=0 / direct=1 / weightb=1 / open_gop=0 / weightp=2 / keyint=250 / keyint_min=23 / scenecut=40 / intra_refresh=0 / rc_lookahead=40 / rc=2pass / mbtree=1 / bitrate=5574 / ratetol=1.0 / qcomp=0.60 / qpmin=0 / qpmax=69 / qpstep=4 / cplxblur=20.0 / qblur=0.5 / ip_ratio=1.40 / aq=1:1.00
Язык : English
Default : Да
Forced : Нет
Аудио #1
Идентификатор : 2
Формат : AC-3
Формат/Информация : Audio Coding 3
Расширение режима : CM (complete main)
Параметр Endianness формата : Big
Идентификатор кодека : A_AC3
Продолжительность : 1 ч. 28 м.
Вид битрейта : Постоянный
Битрейт : 448 Кбит/сек
Каналы : 2 канала
Расположение каналов : Front: L R
Частота : 44,1 КГц
Битовая глубина : 16 бит
Метод сжатия : С потерями
Размер потока : 283 Мбайт (6%)
Заголовок : Любительский одноголосый [R.A.I.M]
Язык : Russian
Default : Да
Forced : Нет
Аудио #2
Идентификатор : 3
Формат : DTS
Формат/Информация : Digital Theater Systems
Режим : 16
Параметр Endianness формата : Big
Идентификатор кодека : A_DTS
Продолжительность : 1 ч. 28 м.
Вид битрейта : Постоянный
Битрейт : 1509 Кбит/сек
Каналы : 6 каналов
Расположение каналов : Front: L C R, Side: L R, LFE
Частота : 48,0 КГц
Битовая глубина : 24 бит
Метод сжатия : С потерями
Размер потока : 953 Мбайт (20%)
Язык : English
Default : Нет
Forced : Нет
Меню
00:00:00.000 : en:00:00:00.000
00:07:26.321 : en:00:07:26.321
00:15:09.534 : en:00:15:09.534
00:21:54.188 : en:00:21:54.188
00:29:58.213 : en:00:29:58.213
00:38:16.961 : en:00:38:16.961
00:45:27.892 : en:00:45:27.892
00:53:34.795 : en:00:53:34.795
01:00:55.235 : en:01:00:55.235
01:08:08.293 : en:01:08:08.293
01:15:39.160 : en:01:15:39.160
01:24:28.021 : en:01:24:28.021
Скриншоты:


Время раздачи: круглогодично

[Цитировать]



Показать сообщения:    

Текущее время: 08-Дек 17:11

Часовой пояс: UTC + 3


Вы не можете начинать темы
Вы не можете отвечать на сообщения
Вы не можете редактировать свои сообщения
Вы не можете удалять свои сообщения
Вы не можете голосовать в опросах
Вы не можете прикреплять файлы к сообщениям
Вы не можете скачивать файлы

!ВНИМАНИЕ!
Сайт не предоставляет электронные версии произведений, а занимается лишь коллекционированием и каталогизацией ссылок, присылаемых и публикуемых на форуме нашими читателями. Если вы являетесь правообладателем какого-либо представленного материала и не желаете, чтобы ссылка на него находилась в нашем каталоге, свяжитесь с нами, и мы незамедлительно удалим ее. Файлы для обмена на трекере предоставлены пользователями сайта, и администрация не несет ответственности за их содержание. Просьба не заливать файлы, защищенные авторскими правами, а также файлы нелегального содержания!