[ Сегодня идет свободное скачивание без начисления Download ]


Статистика раздачи
Нет
 
   
 
Top  
 
 
-Двойник / The Double (2013) WEB-DL [H.264/720p-LQ]- Год выпуска: 2013
Производство: Великобритания, Alcove Entertainment, British Film Institute (BFI), Film4
Жанр: Триллер, Драма
Перевод: Многоголосый закадровый, профессиональный
Субтитры: Вшитые отключаемые
Язык субтитров: Английский
Дата мировой премьеры: 7 сентября 2013
Дата российской премьеры: 1 мая 2014, «Премиум Фильм»
Дата выхода DVD релиза: 31 июля 2014, «CP Дистрибуция»
Режиссер: Ричард Айоади
Продюсер: Амина Дасмал, Робин Фокс, Майкл Кейн
Актеры: Джесси Айзенберг, Миа Васиковска, Уоллес Шоун, Ясмин Пейдж, Ноа Тейлор, Джеймс Фокс, Крис О’Дауд, Салли Хокинс, Пэдди Консидайн, Кэти Мориарти
Описание фильма:
Саймон — скромный работяга. На работе его не замечают, а девушка мечты игнорирует. Кажется, что так будет продолжаться вечно, но однажды в конторе появляется Джеймс, внешне — двойник Саймона, но по характеру его полная противоположность — уверенный, харизматичный плейбой. К ужасу Саймона, Джеймс потихоньку начинает забирать его жизнь.

Рейтинг MPAA: PG-17
Возраст: 12+
Продолжительность: 01:33:00
Качество видео: WEB-DL
Видеокодек: MPEG-4 AVC/H.264
Битрейт видео: 4186 kb/s
Размер кадра: 1280x690
Аудио #1: 48 kHz, AC3, 2/0 (L,R) ch, ~192 kbps avg (Русский) / Профка, Официальная
Аудио #2: 48 kHz, AC3, 3/2 (L,C,R,l,r) + LFE ch, ~384 kbps avg (Английский) / Оригинал

MI

Общее
Уникальный идентификатор                 : 253880544224502531213501515865629778002 (0xBEFF9D3EF58809468515F9298E29E052)
Полное имя                               : D:\Раздачи\Dvojnik.2013.WEB-DL.720p.NNM-CLUB.mkv
Формат                                   : Matroska
Версия формата                           : Version 2
Размер файла                             : 3,16 Гбайт
Продолжительность                        : 1 ч. 33 м.
Общий поток                              : 4858 Кбит/сек
Название фильма                          : Dvojnik.2013.WEB-DL.720p.NNM-CLUB
Дата кодирования                         : UTC 2014-06-20 18:32:28
Программа кодирования                    : mkvmerge v4.9.1 ('Ich will') сборка от Jul 11 2011 23:53:15
Библиотека кодирования                   : libebml v1.2.1 + libmatroska v1.1.1
Видео
Идентификатор                            : 1
Формат                                   : AVC
Формат/Информация                        : Advanced Video Codec
Профиль формата                          : [url=mailto:[email protected]][email protected][/url]
Параметр CABAC формата                   : Нет
Параметр ReFrames формата                : 2 кадра
Идентификатор кодека                     : V_MPEG4/ISO/AVC
Продолжительность                        : 1 ч. 33 м.
Битрейт                                  : 4186 Кбит/сек
Ширина                                   : 1280 пикселей
Высота                                   : 690 пикселей
Соотношение сторон                       : 1,85:1
Режим частоты кадров                     : Постоянный
Частота кадров                           : 23,976 кадра/сек
Цветовое пространство                    : YUV
Субдискретизация насыщенности            : 4:2:0
Битовая глубина                          : 8 бит
Тип развёртки                            : Прогрессивная
Бит/(Пиксели*Кадры)                      : 0.198
Размер потока                            : 2,72 Гбайт (86%)
Язык                                     : English
Default                                  : Нет
Forced                                   : Нет
Основные цвета                           : BT.709
Характеристики трансфера                 : BT.709
Коэффициенты матрицы                     : BT.709
Аудио #1
Идентификатор                            : 2
Формат                                   : AC-3
Формат/Информация                        : Audio Coding 3
Расширение режима                        : CM (complete main)
Параметр Endianness формата              : Big
Идентификатор кодека                     : A_AC3
Продолжительность                        : 1 ч. 33 м.
Вид битрейта                             : Постоянный
Битрейт                                  : 192 Кбит/сек
Каналы                                   : 2 канала
Расположение каналов                     : Front: L R
Частота                                  : 48,0 КГц
Битовая глубина                          : 16 бит
Метод сжатия                             : С потерями
Размер потока                            : 128 Мбайт (4%)
Язык                                     : Russian
Default                                  : Да
Forced                                   : Нет
Аудио #2
Идентификатор                            : 3
Формат                                   : AC-3
Формат/Информация                        : Audio Coding 3
Расширение режима                        : CM (complete main)
Параметр Endianness формата              : Big
Идентификатор кодека                     : A_AC3
Продолжительность                        : 1 ч. 33 м.
Вид битрейта                             : Постоянный
Битрейт                                  : 384 Кбит/сек
Каналы                                   : 6 каналов
Расположение каналов                     : Front: L C R, Side: L R, LFE
Частота                                  : 48,0 КГц
Битовая глубина                          : 16 бит
Метод сжатия                             : С потерями
Размер потока                            : 255 Мбайт (8%)
Язык                                     : English
Default                                  : Нет
Forced                                   : Нет
Текст
Идентификатор                            : 4
Формат                                   : UTF-8
Идентификатор кодека                     : S_TEXT/UTF8
Идентификатор кодека/Информация          : UTF-8 Plain Text
Язык                                     : English
Default                                  : Нет
Forced                                   : Нет
Меню
00:00:00.000                             : en:1
00:04:47.000                             : en:2
00:10:06.000                             : en:3
00:16:22.000                             : en:4
00:20:36.000                             : en:5
00:25:32.000                             : en:6
00:31:26.000                             : en:7
00:35:53.000                             : en:8
00:43:17.000                             : en:9
00:48:06.000                             : en:10
00:50:11.000                             : en:11
00:53:22.000                             : en:12
01:01:50.000                             : en:13
01:07:07.000                             : en:14
01:13:41.000                             : en:15
01:19:39.000                             : en:16
Скриншоты: Время раздачи: 24/7,
до 5 скачавших.

[Цитировать]

Топик был перенесен из форума Новинки кинопроката в форум Триллер
Henkok



Показать сообщения:    

Текущее время: 05-Дек 13:32

Часовой пояс: UTC + 3


Вы не можете начинать темы
Вы не можете отвечать на сообщения
Вы не можете редактировать свои сообщения
Вы не можете удалять свои сообщения
Вы не можете голосовать в опросах
Вы не можете прикреплять файлы к сообщениям
Вы не можете скачивать файлы

!ВНИМАНИЕ!
Сайт не предоставляет электронные версии произведений, а занимается лишь коллекционированием и каталогизацией ссылок, присылаемых и публикуемых на форуме нашими читателями. Если вы являетесь правообладателем какого-либо представленного материала и не желаете, чтобы ссылка на него находилась в нашем каталоге, свяжитесь с нами, и мы незамедлительно удалим ее. Файлы для обмена на трекере предоставлены пользователями сайта, и администрация не несет ответственности за их содержание. Просьба не заливать файлы, защищенные авторскими правами, а также файлы нелегального содержания!