[ Сегодня идет свободное скачивание без начисления Download ]


Статистика раздачи
Нет
 
   
 
Top  
 
 
-С кем переспать?!! / The To Do List (2013) BDRip- Год выпуска: 2013
Производство: США - 3 Arts Entertainment, The Mark Gordon Company
Жанр: Комедия, эротика
Перевод: Дублированный [студия "Пифагор"]
Субтитры: Вшитые отключаемые
Язык субтитров: Английский
Режиссер: Мэгги Кэри / Maggie Carey
Актеры: Обри Пласа, Джонни Симмонс, Билл Хейдер, Алиа Шокат, Сара Стил, Скотт Портер, Рэйчел Билсон, Кристофер Минц-Плассе, Энди Сэмберг, Дональд Гловер
Описание фильма:
Действие комедии происходит в 90-е 20 века в американском пригороде. Выпускница школы пишет свой «список дел», которые надо завершить до перехода в колледж. Все пункты списка непристойны и направлены на обретение сексуального опыта. Но девушка мало понимает, как получить заветный опыт, и попадает в смешные ситуации.

Дата мировой премьеры: 26 июля 2013
Дата российской премьеры: 25 июля 2013, «West»
Дата украинской премьеры: 8 августа 2013, «Ukrainian Film Distribution»
Продолжительность: 01:44:53
Качество видео: BDRip 1080p - LQ - profile
Видеокодек: MPEG-4 AVC/H.264
Видео: H264, 9013 Кбит/с, 1920x1080, 23.976 кадр/с
Аудио #1: Русский: AC3, 5.1, 448 Кбит/с, 48kHz, 16 bit
Аудио #2: Украинский: MP3, 2.0, 192 Кбит/с, 48kHz, 16 bit - дублированный |звук с TS|
Аудио #3: Английский: DTS, 5.1, 1536 Кбит/с, 48 kHz, 24 bit
Сохранены оригинальные чаптеры как на Blu-Ray

MediaInfo:

Общее
Уникальный идентификатор : 185674816190261164731348479539293950160 (0x8BAFAB3939BB0CF1A4B72B165D2790D0)
Полное имя : D:\Video\The.To.Do.List.2013.BDRip.1080p.Rus.Ukr.Eng.mkv
Формат : Matroska
Версия формата : Version 4 / Version 2
Размер файла : 8,11 Гбайт
Продолжительность : 1 ч. 43 м.
Общий поток : 11,2 Мбит/сек
Дата кодирования : UTC 2014-06-20 01:30:36
Программа кодирования : mkvmerge v6.3.0 ('You can't stop me!') built on Jun 28 2013 20:09:41
Библиотека кодирования : libebml v1.3.0 + libmatroska v1.4.0
Видео
Идентификатор : 1
Формат : AVC
Формат/Информация : Advanced Video Codec
Профиль формата : [email protected]
Параметр CABAC формата : Да
Параметр ReFrames формата : 4 кадра
Идентификатор кодека : V_MPEG4/ISO/AVC
Продолжительность : 1 ч. 43 м.
Битрейт : 9031 Кбит/сек
Ширина : 1920 пикселей
Высота : 1080 пикселей
Соотношение сторон : 16:9
Режим частоты кадров : Постоянный
Частота кадров : 23,976 кадра/сек
Цветовое пространство : YUV
Субдискретизация насыщенности : 4:2:0
Битовая глубина : 8 бит
Тип развёртки : Прогрессивная
Бит/(Пиксели*Кадры) : 0.182
Размер потока : 6,39 Гбайт (79%)
Заголовок : X264
Библиотека кодирования : x264 core 140 r2377 1ca7bb9
Настройки программы : cabac=1 / ref=4 / deblock=1:0:0 / analyse=0x3:0x133 / me=umh / subme=7 / psy=1 / psy_rd=1.00:0.00 / mixed_ref=1 / me_range=16 / chroma_me=1 / trellis=1 / 8x8dct=1 / cqm=0 / deadzone=21,11 / fast_pskip=0 / chroma_qp_offset=-2 / threads=36 / lookahead_threads=6 / sliced_threads=0 / nr=0 / decimate=1 / interlaced=0 / bluray_compat=0 / constrained_intra=0 / bframes=3 / b_pyramid=2 / b_adapt=1 / b_bias=0 / direct=1 / weightb=1 / open_gop=0 / weightp=2 / keyint=250 / keyint_min=23 / scenecut=40 / intra_refresh=0 / rc_lookahead=40 / rc=2pass / mbtree=1 / bitrate=9031 / ratetol=1.0 / qcomp=0.60 / qpmin=0 / qpmax=69 / qpstep=4 / cplxblur=20.0 / qblur=0.5 / ip_ratio=1.40 / aq=1:1.00
Язык : English
Default : Да
Forced : Нет
Аудио #1
Идентификатор : 2
Формат : AC-3
Формат/Информация : Audio Coding 3
Расширение режима : CM (complete main)
Параметр Endianness формата : Big
Идентификатор кодека : A_AC3
Продолжительность : 1 ч. 43 м.
Вид битрейта : Постоянный
Битрейт : 448 Кбит/сек
Каналы : 6 каналов
Расположение каналов : Front: L C R, Side: L R, LFE
Частота : 48,0 КГц
Битовая глубина : 16 бит
Метод сжатия : С потерями
Размер потока : 333 Мбайт (4%)
Язык : Russian
Default : Да
Forced : Нет
Аудио #2
Идентификатор : 3
Формат : MPEG Audio
Версия формата : Version 1
Профиль формата : Layer 3
Режим : Joint stereo
Идентификатор кодека : A_MPEG/L3
Идентификатор кодека/Подсказка : MP3
Продолжительность : 1 ч. 43 м.
Вид битрейта : Постоянный
Битрейт : 192 Кбит/сек
Каналы : 2 канала
Частота : 32,0 КГц
Метод сжатия : С потерями
Размер потока : 143 Мбайт (2%)
Библиотека кодирования : LAME3.98
Default : Нет
Forced : Нет
Аудио #3
Идентификатор : 4
Формат : DTS
Формат/Информация : Digital Theater Systems
Режим : 16
Параметр Endianness формата : Big
Идентификатор кодека : A_DTS
Продолжительность : 1 ч. 43 м.
Вид битрейта : Постоянный
Битрейт : 1509 Кбит/сек
Каналы : 6 каналов
Расположение каналов : Front: L C R, Side: L R, LFE
Частота : 48,0 КГц
Битовая глубина : 24 бит
Метод сжатия : С потерями
Размер потока : 1,09 Гбайт (13%)
Заголовок : DTS
Язык : English
Default : Нет
Forced : Нет
Меню
00:00:00.000 : en:00:00:00.000
00:06:47.949 : en:00:06:47.949
00:13:14.919 : en:00:13:14.919
00:21:51.644 : en:00:21:51.644
00:28:22.117 : en:00:28:22.117
00:33:47.943 : en:00:33:47.943
00:41:35.451 : en:00:41:35.451
00:46:40.923 : en:00:46:40.923
00:51:35.134 : en:00:51:35.134
00:59:53.757 : en:00:59:53.757
01:06:37.702 : en:01:06:37.702
01:12:07.323 : en:01:12:07.323
01:17:44.368 : en:01:17:44.368
01:22:14.304 : en:01:22:14.304
01:29:52.804 : en:01:29:52.804
01:37:36.768 : en:01:37:36.768

Рецензия:

Так с кем переспать?..
Первым делом хочется отметить замечательную фантазию русских прокатчиков. Благодаря им мне особенно интересно было ходить в кино. «Два билета на „С кем переспать“, пожалуйста» — и вся очередь с кассирами вкупе пялятся на нас с подругой как на извращенок. Ведь нормальное же название было у американской версии: „To do list“ — «Список дел». И суть отражает, и не так стыдно звучит.
Обычно для таких фильмов пишут отрицательные рецензии. ТАК (Тупая Американская Комедия) в чистом виде. Но… я действительно получила удовольствие от просмотра. Хоть весь фильм был одной сплошной пошлятиной. Только тут пошлятина была на удивление смешной и не злой. Прямо видно, что вся съемочная площадка тащилась от того, что они творят.
Сюжет. Общая канва банальна до слез. ГГ, которая втюрилась в сексуального долбо… э… разгильдяя и в упор не замечает умного-симпатичного-верного-влюбленного друга, который-де в сто раз лучше. Я знала, чем все закончится, уже после вступительных титров. Но тот путь, который сюжет преодолевает, на удивление заставляет продолжать смотреть, а не подпрыгивать на месте «Ну когда же он уже кончится?!». Интересно было. Это главное.
Юмор. Проржала весь фильм. Этим все сказано. ТАКи редко заставляют меня смеяться, но тут я проржала весь фильм. Кажется, подруга тоже.
Актерский состав. Золотая составляющая. Не могу сказать, что мне очень нравится восходящая звезда инди-кино Обри Плаза в роли ГГ, но она была не так уж плоха. Все остальные на высоте. Могу выделить нескольких: Билсон хорошо сыграла стерву-сестру, Минц-Плассе отличился в необычном амплуа, Сэмберг — он и есть Сэмберг, одни его выражения лица как всегда дорогого стоят. По моему сугубо субъективному мнению лучше всех все равно был Билл Хейдер (Saturday Night Live, Superперцы, Пол — секретный матерьяльчик, Парк культуры и отдыха и т. д., и т. п.), по совместительству муж режиссера и сценариста Мэгги Кэри. Каждая сцена с ним — маленький театр одного актера. Неприлично красивого и талантливого актера. Ай-ай-ай, Билл. Надо думать и о партнерах по фильму, а не привлекать к себе все внимание.
Вывод: можете меня ненавидеть, но рецензия моя положительная. Не рекомендуется к просмотру любителям серьезного кино с глубоким смыслом, а все остальные вполне получат удовольствие, особенно те, кто любит такие фильмы, как «Американский пирог» и «Дорожное приключение». «С кем переспать» — крайне забавная комедия на тему полового созревания.
В рамках жанра (и только в рамках жанра!)

8 из 10

З. Ы. Странно, что фильм только-только вышел, а его уже перестали показывать во множестве кинотеатров. То ли зритель больно разборчивый пошел, то ли на маркетинг прокатчики разоряться не захотели. А может все просто стесняются признаваться кассирам, что хотят «С кем переспать». Кто не постесняется — молодец, возьмите с полки пирожок.
З. З. Ы. Зато моя рецензия — самая первая! Даже жалко, что никто не захотел поделиться мнением…
Скриншоты:
Время раздачи: с 10:00 до 20:00 (GMT+2) - до 10 скачавшихНе забываем говорить

[Цитировать]



Показать сообщения:    

Текущее время: 06-Дек 17:13

Часовой пояс: UTC + 3


Вы не можете начинать темы
Вы не можете отвечать на сообщения
Вы не можете редактировать свои сообщения
Вы не можете удалять свои сообщения
Вы не можете голосовать в опросах
Вы не можете прикреплять файлы к сообщениям
Вы не можете скачивать файлы

!ВНИМАНИЕ!
Сайт не предоставляет электронные версии произведений, а занимается лишь коллекционированием и каталогизацией ссылок, присылаемых и публикуемых на форуме нашими читателями. Если вы являетесь правообладателем какого-либо представленного материала и не желаете, чтобы ссылка на него находилась в нашем каталоге, свяжитесь с нами, и мы незамедлительно удалим ее. Файлы для обмена на трекере предоставлены пользователями сайта, и администрация не несет ответственности за их содержание. Просьба не заливать файлы, защищенные авторскими правами, а также файлы нелегального содержания!