[ Сегодня идет свободное скачивание без начисления Download ]


Статистика раздачи
Нет
 
   
 
Top  
 
 
-Рейд 2 / The Raid 2: Berandal (2014) BDRip [720p] [Звук с TS]- Год выпуска: 2014
Производство: Индонезия, Pt. Merantau Films, XYZ Films
Жанр: Криминал, Триллер, Боевик
Режиссер: Гарет Эванс
Продюсер: Натаниель Болотин, Арио Саганторо, Арам Терцакян
Актеры: Тио Пакусодево, Ока Антара, Дони Аламсях, Джули Эстелль, Яян Рухьян, Рюхэй Мацуда, Алекс Аббад, Арифин Путра, Сесеп Ариф Рахман, Ико Ювайс
Описание фильма:
Из трех полицейских, выбравшихся из кровавого ада первой части, в живых остается только офицер Рама. Уволившись из спецназа, он пробует начать жизнь заново, но вскоре прошлое жестко напоминает о себе - преступники убивают его брата. Чтобы отомстить, он внедряется в мощный криминальный синдикат, где быстро поднимается до самых вершин бандитской иерархии. Врагов здесь еще больше, и каждый неверный шаг может оказаться последним. Здесь нет ни близких, ни друзей, ни любви, ни тоски, ни жалости!
Перевод: Дублированный [Звук с TS]
Субтитры: Вшитые отключаемые
Язык субтитров: Английский (Forced)

Дата мировой премьеры: 21 января 2014
Дата российской премьеры: 27 марта 2014, «Вольга»
Дата украинской премьеры: 3 апреля 2014, «Вольга Украина»
Продолжительность: 02:30:28
Качество видео: BDRip [720p]
Видеокодек: MPEG-4 AVC/H.264
Битрейт видео: 4257 Kbps
Размер кадра: 1280x536
Аудио #1: Русский: MP3, 44.1 KHz, 2 ch, 128 Kbps, CBR
Аудио #2: Английский: DTS, 48.0 KHz, 6 ch, 1510 Kbps, CBR
Сэмпл: Скачать

MediaInfo:

Общее
Уникальный идентификатор : 194552651476312110627315299701487753917 (0x925D7A4C1BA78E3F95B45DAD6BA2DABD)
Полное имя : D:\Фильмы\Pejd.2.2014.Dt.BDRip.720p.mkv
Формат : Matroska
Версия формата : Version 4 / Version 2
Размер файла : 6,20 Гбайт
Продолжительность : 2 ч. 30 м.
Общий поток : 5895 Кбит/сек
Дата кодирования : UTC 2014-06-21 04:00:02
Программа кодирования : mkvmerge v6.9.1 ('Blue Panther') 64bit built on Apr 18 2014 18:23:38
Библиотека кодирования : libebml v1.3.0 + libmatroska v1.4.1
Видео
Идентификатор : 1
Формат : AVC
Формат/Информация : Advanced Video Codec
Профиль формата : [email protected]
Параметр CABAC формата : Да
Параметр ReFrames формата : 5 кадров
Идентификатор кодека : V_MPEG4/ISO/AVC
Продолжительность : 2 ч. 30 м.
Битрейт : 4257 Кбит/сек
Ширина : 1280 пикселей
Высота : 536 пикселей
Соотношение сторон : 2,40:1
Режим частоты кадров : Постоянный
Частота кадров : 23,976 кадра/сек
Цветовое пространство : YUV
Субдискретизация насыщенности : 4:2:0
Битовая глубина : 8 бит
Тип развёртки : Прогрессивная
Бит/(Пиксели*Кадры) : 0.259
Размер потока : 4,35 Гбайт (70%)
Библиотека кодирования : x264 core 142 r2431 ac76440
Настройки программы : cabac=1 / ref=5 / deblock=1:0:0 / analyse=0x3:0x133 / me=umh / subme=7 / psy=1 / psy_rd=1.00:0.00 / mixed_ref=1 / me_range=16 / chroma_me=1 / trellis=1 / 8x8dct=1 / cqm=0 / deadzone=21,11 / fast_pskip=0 / chroma_qp_offset=-2 / threads=18 / lookahead_threads=3 / sliced_threads=0 / nr=0 / decimate=1 / interlaced=0 / bluray_compat=0 / constrained_intra=0 / bframes=3 / b_pyramid=2 / b_adapt=1 / b_bias=0 / direct=1 / weightb=1 / open_gop=0 / weightp=2 / keyint=250 / keyint_min=23 / scenecut=40 / intra_refresh=0 / rc_lookahead=40 / rc=2pass / mbtree=1 / bitrate=4257 / ratetol=1.0 / qcomp=0.60 / qpmin=0 / qpmax=69 / qpstep=4 / cplxblur=20.0 / qblur=0.5 / ip_ratio=1.40 / aq=1:1.00
Язык : Indonesian
Default : Да
Forced : Нет
Аудио #1
Идентификатор : 2
Формат : MPEG Audio
Версия формата : Version 1
Профиль формата : Layer 3
Идентификатор кодека : A_MPEG/L3
Идентификатор кодека/Подсказка : MP3
Продолжительность : 2 ч. 30 м.
Вид битрейта : Постоянный
Битрейт : 128 Кбит/сек
Каналы : 2 канала
Частота : 44,1 КГц
Метод сжатия : С потерями
Размер потока : 138 Мбайт (2%)
Язык : Russian
Default : Да
Forced : Нет
Аудио #2
Идентификатор : 3
Формат : DTS
Формат/Информация : Digital Theater Systems
Режим : 16
Параметр Endianness формата : Big
Идентификатор кодека : A_DTS
Продолжительность : 2 ч. 30 м.
Вид битрейта : Постоянный
Битрейт : 1509 Кбит/сек
Каналы : 6 каналов
Расположение каналов : Front: L C R, Side: L R, LFE
Частота : 48,0 КГц
Битовая глубина : 24 бит
Метод сжатия : С потерями
Размер потока : 1,59 Гбайт (26%)
Язык : English
Default : Нет
Forced : Нет
Текст
Идентификатор : 4
Формат : UTF-8
Идентификатор кодека : S_TEXT/UTF8
Идентификатор кодека/Информация : UTF-8 Plain Text
Заголовок : English-Forced
Язык : English
Default : Да
Forced : Да
Меню
00:00:00.000 : en:00:00:00.000
00:08:02.315 : en:00:08:02.315
00:14:03.217 : en:00:14:03.217
00:21:08.893 : en:00:21:08.893
00:31:45.487 : en:00:31:45.487
00:42:22.123 : en:00:42:22.123
00:50:55.177 : en:00:50:55.177
01:01:58.423 : en:01:01:58.423
01:11:49.764 : en:01:11:49.764
01:24:47.165 : en:01:24:47.165
01:36:31.995 : en:01:36:31.995
01:44:18.752 : en:01:44:18.752
01:48:31.714 : en:01:48:31.714
01:57:20.283 : en:01:57:20.283
02:05:59.093 : en:02:05:59.093
02:20:02.894 : en:02:20:02.894

Avdump:

File: D:\Фильмы\Pejd.2.2014.Dt.BDRip.720p.mkv
Duration: 02:30:28 (9028.08)
Track #1: video
lang: ind (1)
codc: V_MPEG4/ISO/AVC -> H264/AVC (22)
reso: 1280x536 -> Unknown (aka not common)
fram: 23.976 fps
rate: 4256 kbps (4255.72)
dura: 02:30:28 (9027.95)
size: 4.47 GB (4802548170)
Track #2: audio
lang: rus -> Russian (15)
codc: A_MPEG/L3 -> MP3 CBR (5)
chan: 2 -> Stereo
samp: 44100 Hz
rate: 128 kbps (128.14)
dura: 02:30:28 (9028.00)
size: 137.91 MB (144604352)
Track #3: audio
lang: Unknown (1)
codc: A_DTS -> DTS (13)
chan: 6 -> 5.1 Surround
samp: 48000 Hz
rate: 1509 kbps (1509.11)
dura: 02:30:28 (9027.94)
size: 1.59 GB (1703018141)
Track #4: subtitles (English-Forced)
lang: Unknown (1)
type: S_TEXT/UTF8 -> SRT (3)
size: 30.00 KB (30723)
Sizes: (check sanity)
disk: 6.20 GB (6653052822)
trac: 2.19 GB (2355234090) [based on track size]
bitr: 6.19 GB (6650173036) [based on bitrate]
tdif: 4.00 GB (4297818732) 64.59%
bdif: 2.75 MB (2879785) 0.04%
Скриншоты:

[Цитировать]



Показать сообщения:    

Текущее время: 04-Дек 17:17

Часовой пояс: UTC + 3


Вы не можете начинать темы
Вы не можете отвечать на сообщения
Вы не можете редактировать свои сообщения
Вы не можете удалять свои сообщения
Вы не можете голосовать в опросах
Вы не можете прикреплять файлы к сообщениям
Вы не можете скачивать файлы

!ВНИМАНИЕ!
Сайт не предоставляет электронные версии произведений, а занимается лишь коллекционированием и каталогизацией ссылок, присылаемых и публикуемых на форуме нашими читателями. Если вы являетесь правообладателем какого-либо представленного материала и не желаете, чтобы ссылка на него находилась в нашем каталоге, свяжитесь с нами, и мы незамедлительно удалим ее. Файлы для обмена на трекере предоставлены пользователями сайта, и администрация не несет ответственности за их содержание. Просьба не заливать файлы, защищенные авторскими правами, а также файлы нелегального содержания!