[ Сегодня идет свободное скачивание без начисления Download ]


Статистика раздачи
Нет
 
   
 
Top  
 
 
-Вулкан страстей / Eyjafjallajokull (2013) BDRip- Год выпуска: 2013
Производство: Франция, Quad Productions, TF1 Films Production, Scope Pictures
Жанр: Комедия, Приключения
Режиссер: Александр Коффре
Продюсер: Николя Дюваль-Адассовски, Лорен Зэйтун, Ян Зеноу
Актеры: Валери Боннетон, Дэни Бун, Дени Меноше, Альберт Дельпи, Беранжер МакНис, Малик Бенталха, Констанс Долле, Мириам Азенкот, Арно Анриет, Ян Сортон и др.
Описание фильма:
Где бы вы не хотели встретиться со своим бывшим? Только не в соседнем кресле самолета, чтобы пережить вместе длинный перелет. И уж точно не в одной машине, чтобы вопреки исландскому вулкану с непроизносимым названием, пересечь всю Европу. Когда вы страстно ненавидите друг друга, может случиться всякое. И угон самолета, и авария, и побег из полиции и даже… возвращение романтики.
Перевод: Дублированный
Субтитры: Отсутствуют
Дата мировой премьеры: 24 августа 2013
Дата российской премьеры: 15 мая 2014, «Каскад»
Дата выхода DVD релиза: 5 июня 2014, «CP Дистрибуция»

Продолжительность: 01:31:53
Качество видео: BDRip [Исходник: Blu-Ray Remux 1080p от schumaher]
Видеокодек: XviD
Битрейт видео: 1827 Кбит/с
Размер кадра: 720x304
Аудиокодек: AC3 5.1
Битрейт аудио: 448 Кбит/с
Автор рипа - ivandubskoj

MediaInfo

General
Complete name : Vulkan.strastej.2013.BDRip.avi
Format : AVI
Format/Info : Audio Video Interleave
File size : 1.46 GiB
Duration : 1h 31mn
Overall bit rate : 2 282 Kbps
Movie name : Вулкан страстей / Eyjafjallajokull (2013) BDRip
Genre : Комедия, приключения
Recorded date : 21.06.2014
Writing application : VirtualDubMod 1.5.10.3 | www.virtualdub-fr.org || (build 2550/release)
Writing library : VirtualDubMod build 2550/release
Copyright : rip by ivandubskoj
Video
ID : 0
Format : MPEG-4 Visual
Format profile : Advanced Simple@L5
Format settings, BVOP : 1
Format settings, QPel : No
Format settings, GMC : No warppoints
Format settings, Matrix : Custom
Codec ID : XVID
Codec ID/Hint : XviD
Duration : 1h 31mn
Bit rate : 1 826 Kbps
Width : 720 pixels
Height : 304 pixels
Display aspect ratio : 2.35:1
Frame rate : 24.000 fps
Color space : YUV
Chroma subsampling : 4:2:0
Bit depth : 8 bits
Scan type : Progressive
Compression mode : Lossy
Bits/(Pixel*Frame) : 0.348
Stream size : 1.17 GiB (80%)
Writing library : XviD 73
Audio
ID : 1
Format : AC-3
Format/Info : Audio Coding 3
Mode extension : CM (complete main)
Codec ID : 2000
Duration : 1h 31mn
Bit rate mode : Constant
Bit rate : 448 Kbps
Channel(s) : 6 channels
Channel positions : Front: L C R, Side: L R, LFE
Sampling rate : 48.0 KHz
Bit depth : 16 bits
Compression mode : Lossy
Stream size : 294 MiB (20%)
Alignment : Split accross interleaves
Interleave, duration : 64 ms (1.54 video frames)
Interleave, preload duration : 500 ms
Title : Russian (DUB, R5)
Скриншоты:

Время раздачи: 24/7 (круглосуточно)

[Цитировать]

Топик был перенесен из форума Новинки кинопроката в форум Комедия
Henkok



Показать сообщения:    

Текущее время: 08-Дек 03:15

Часовой пояс: UTC + 3


Вы не можете начинать темы
Вы не можете отвечать на сообщения
Вы не можете редактировать свои сообщения
Вы не можете удалять свои сообщения
Вы не можете голосовать в опросах
Вы не можете прикреплять файлы к сообщениям
Вы не можете скачивать файлы

!ВНИМАНИЕ!
Сайт не предоставляет электронные версии произведений, а занимается лишь коллекционированием и каталогизацией ссылок, присылаемых и публикуемых на форуме нашими читателями. Если вы являетесь правообладателем какого-либо представленного материала и не желаете, чтобы ссылка на него находилась в нашем каталоге, свяжитесь с нами, и мы незамедлительно удалим ее. Файлы для обмена на трекере предоставлены пользователями сайта, и администрация не несет ответственности за их содержание. Просьба не заливать файлы, защищенные авторскими правами, а также файлы нелегального содержания!