[ Сегодня идет свободное скачивание без начисления Download ]


Статистика раздачи
Нет
 
   
 
Top  
 
 
-Вулкан страстей / Eyjafjallajokull (2013) BDRip [H.264/720p-LQ]«Бывший - хуже стихии»- Год выпуска: 2013
Производство: Франция, Бельгия
Жанр: Комедия, Приключения
Режиссер: Александр Коффре / Alexandre Coffre
Продюсер: Николя Дюваль-Адассовски, Лорен Зэйтун, Ян Зеноу
Актеры: Валери Боннетон, Дани Бун, Дени Меноше, Альберт Дельпи, Беранжер МакНис, Малик Бенталха, Констанс Долле, Мириам Азенкот, Арно Анриет, Ян Сортон
Описание фильма:
Когда исландский вулкан с заковыристым названием начал извергать целые тучи пепла, воздушное движение над всей Европой оказалось парализованным. Столкнувшись с непредвиденными трудностями и желая во что бы то ни стало попасть на свадьбу дочери в Греции, разведенной паре придется совершить путешествие на всевозможных видах транспорта. Ситуация осложняется тем, что бывшие супруги пламенно ненавидят друг друга...
Перевод: Дублированный (Лицензия R5)
Субтитры: Вшитые отключаемые
Язык субтитров: Английский
Возраст: 12+

Дата мировой премьеры: 24 августа 2013
Дата российской премьеры: 15 мая 2014, «Каскад»
Дата выхода DVD релиза: 5 июня 2014, «CP Дистрибуция»
Продолжительность: 01:31:53
Качество видео: BDRip [Hot-Film]
Видеокодек: MPEG-4 AVC/H.264
Битрейт видео: ~2916 Kbps
Размер кадра: 1280x536, 24,000 fps
Аудио #1: AC3, 48,0 KHz, 6 ch, 448 Kbps, CBR (Русский, Дубляж)
Аудио #2: AC3, 48,0 KHz, 6 ch, 448 Kbps, CBR (Французский)

MediaInfo:

Формат                                   : Matroska
Версия формата                           : Version 2
Размер файла                             : 2,45 Гбайт
Продолжительность                        : 1 ч. 31 м.
Общий поток                              : 3811 Кбит/сек
Название фильма                          : Le Volcan (2013)
Дата кодирования                         : UTC 2014-06-21 14:38:42
Программа кодирования                    : mkvmerge v6.9.1 ('Blue Panther') 64bit built on Apr 18 2014 18:23:38
Библиотека кодирования                   : libebml v1.3.0 + libmatroska v1.4.1
Видео
Идентификатор                            : 1
Формат                                   : AVC
Формат/Информация                        : Advanced Video Codec
Профиль формата                          : [url=mailto:[email protected]][email protected][/url]
Параметр CABAC формата                   : Да
Параметр ReFrames формата                : 9 кадров
Идентификатор кодека                     : V_MPEG4/ISO/AVC
Продолжительность                        : 1 ч. 31 м.
Битрейт                                  : 2916 Кбит/сек
Ширина                                   : 1280 пикселей
Высота                                   : 536 пикселей
Соотношение сторон                       : 2,40:1
Режим частоты кадров                     : Постоянный
Частота кадров                           : 24,000 кадра/сек
Цветовое пространство                    : YUV
Субдискретизация насыщенности            : 4:2:0
Битовая глубина                          : 8 бит
Тип развёртки                            : Прогрессивная
Бит/(Пиксели*Кадры)                      : 0.177
Размер потока                            : 1,82 Гбайт (74%)
Библиотека кодирования                   : x264 core 138 r2358 9e941d1
Настройки программы                      : cabac=1 / ref=9 / deblock=1:-3:-3 / analyse=0x3:0x133 / me=umh / subme=11 / psy=1 / psy_rd=1.00:0.10 / mixed_ref=1 / me_range=32 / chroma_me=1 / trellis=2 / 8x8dct=1 / cqm=0 / deadzone=21,11 / fast_pskip=0 / chroma_qp_offset=-3 / threads=12 / lookahead_threads=3 / sliced_threads=0 / nr=0 / decimate=0 / interlaced=0 / bluray_compat=0 / constrained_intra=0 / bframes=10 / b_pyramid=2 / b_adapt=2 / b_bias=0 / direct=3 / weightb=1 / open_gop=0 / weightp=2 / keyint=240 / keyint_min=24 / scenecut=40 / intra_refresh=0 / rc_lookahead=40 / rc=2pass / mbtree=0 / bitrate=2916 / ratetol=1.0 / qcomp=0.60 / qpmin=0 / qpmax=69 / qpstep=4 / cplxblur=20.0 / qblur=0.5 / vbv_maxrate=50000 / vbv_bufsize=62500 / nal_hrd=none / ip_ratio=1.40 / pb_ratio=1.30 / aq=1:0.80
Язык                                     : English
Default                                  : Да
Forced                                   : Нет
Аудио #1
Идентификатор                            : 2
Формат                                   : AC-3
Формат/Информация                        : Audio Coding 3
Расширение режима                        : CM (complete main)
Параметр Endianness формата              : Big
Идентификатор кодека                     : A_AC3
Продолжительность                        : 1 ч. 31 м.
Вид битрейта                             : Постоянный
Битрейт                                  : 448 Кбит/сек
Каналы                                   : 6 каналов
Расположение каналов                     : Front: L C R, Side: L R, LFE
Частота                                  : 48,0 КГц
Битовая глубина                          : 16 бит
Метод сжатия                             : С потерями
Размер потока                            : 294 Мбайт (12%)
Язык                                     : Russian
Default                                  : Да
Forced                                   : Нет
Аудио #2
Идентификатор                            : 3
Формат                                   : AC-3
Формат/Информация                        : Audio Coding 3
Расширение режима                        : CM (complete main)
Параметр Endianness формата              : Big
Идентификатор кодека                     : A_AC3
Продолжительность                        : 1 ч. 31 м.
Вид битрейта                             : Постоянный
Битрейт                                  : 448 Кбит/сек
Каналы                                   : 6 каналов
Расположение каналов                     : Front: L C R, Side: L R, LFE
Частота                                  : 48,0 КГц
Битовая глубина                          : 16 бит
Метод сжатия                             : С потерями
Размер потока                            : 294 Мбайт (12%)
Язык                                     : French
Default                                  : Нет
Forced                                   : Нет
Текст
Идентификатор                            : 4
Формат                                   : UTF-8
Идентификатор кодека                     : S_TEXT/UTF8
Идентификатор кодека/Информация          : UTF-8 Plain Text
Язык                                     : English
Default                                  : Нет
Forced                                   : Нет
Меню
00:00:00.000                             : :Chapter 01
00:06:30.500                             : :Chapter 02
00:15:49.916                             : :Chapter 03
00:22:09.541                             : :Chapter 04
00:31:07.166                             : :Chapter 05
00:38:02.500                             : :Chapter 06
00:44:55.125                             : :Chapter 07
00:53:15.541                             : :Chapter 08
01:02:37.541                             : :Chapter 09
01:07:48.208                             : :Chapter 10
01:17:01.083                             : :Chapter 11
01:26:40.708                             : :Chapter 12
Скриншоты:

Время раздачи: 24/7 (до 10 скачавших)

[Цитировать]

Топик был перенесен из форума Новинки кинопроката в форум Комедия
Henkok



Показать сообщения:    

Текущее время: 05-Дек 19:42

Часовой пояс: UTC + 3


Вы не можете начинать темы
Вы не можете отвечать на сообщения
Вы не можете редактировать свои сообщения
Вы не можете удалять свои сообщения
Вы не можете голосовать в опросах
Вы не можете прикреплять файлы к сообщениям
Вы не можете скачивать файлы

!ВНИМАНИЕ!
Сайт не предоставляет электронные версии произведений, а занимается лишь коллекционированием и каталогизацией ссылок, присылаемых и публикуемых на форуме нашими читателями. Если вы являетесь правообладателем какого-либо представленного материала и не желаете, чтобы ссылка на него находилась в нашем каталоге, свяжитесь с нами, и мы незамедлительно удалим ее. Файлы для обмена на трекере предоставлены пользователями сайта, и администрация не несет ответственности за их содержание. Просьба не заливать файлы, защищенные авторскими правами, а также файлы нелегального содержания!