[ Сегодня идет свободное скачивание без начисления Download ]


Статистика раздачи
Нет
 
   
 
Top  
 
 
-Вулкан страстей / Eyjafjallajokull (2013) BDRip- Год выпуска: 2013
Производство: Франция, Бельгия - Canal+ [fr], Chaocorp DГ©veloppement, Cin?, Le Tax Shelter du Gouvernement F?d?ral de Belgique, Les Productions du Ch
Жанр: Комедия, Приключения
Перевод: Дублированный (R5)
Субтитры: Вшитые отключаемые
Язык субтитров: Русский, английский
Режиссер: Александр Коффре / Alexandre Coffre
Продюсер: Николя Дюваль-Адассовски, Лорен Зэйтун, Ян Зеноу
Актеры: Валери Боннетон, Дани Бун, Дени Меноше, Альберт Дельпи, Беранжер МакНис, Малик Бенталха, Констанс Долле, Мириам Азенкот, Арно Анриет, Ян Сортон
Описание фильма:
Когда исландский вулкан с заковыристым названием начал извергать целые тучи пепла, воздушное движение над всей Европой оказалось парализованным. Столкнувшись с непредвиденными трудностями и желая во что бы то ни стало попасть на свадьбу дочери в Греции, разведенной паре придется совершить путешествие на всевозможных видах транспорта. Ситуация осложняется тем, что бывшие супруги пламенно ненавидят друг друга...

Дата мировой премьеры: 24 августа 2013
Дата российской премьеры: 15 мая 2014, «Каскад»
Дата выхода DVD релиза: 5 июня 2014, «CP Дистрибуция»
Продолжительность: 01:31:53
Качество видео: BDRip 1080p
Видео: MPEG-4 AVC/H.264, 11.0 Мбит/с, 1920x804, 24,000 кадра/сек
Аудио #1: Русский: AC3, 5.1, 448 Кбит/с, 48kHz, 16 bit
Аудио #2: Французский: AC3, 5.1, 640 Кбит/с, 48kHz, 16 bit
Сохранены оригинальные чаптеры как на Blu-Ray

MediaInfo:

Общее
Уникальный идентификатор : 202994191775713118757589493835377448376 (0x98B7425E0F8D2673897A2369386895B8)
Полное имя : D:\Video\Le.Volcan.2013.BDRip.1080p.Rus.Eng.mkv
Формат : Matroska
Версия формата : Version 4 / Version 2
Размер файла : 7,76 Гбайт
Продолжительность : 1 ч. 31 м.
Общий поток : 12,1 Мбит/сек
Дата кодирования : UTC 2014-06-21 17:23:24
Программа кодирования : mkvmerge v6.1.0 ('Old Devil') built on Mar 4 2013 09:10:42
Библиотека кодирования : libebml v1.3.0 + libmatroska v1.4.0
Видео
Идентификатор : 1
Формат : AVC
Формат/Информация : Advanced Video Codec
Профиль формата : High@L4.1
Параметр CABAC формата : Да
Параметр ReFrames формата : 5 кадров
Идентификатор кодека : V_MPEG4/ISO/AVC
Продолжительность : 1 ч. 31 м.
Битрейт : 11,0 Мбит/сек
Ширина : 1920 пикселей
Высота : 804 пикселя
Соотношение сторон : 2,40:1
Режим частоты кадров : Постоянный
Частота кадров : 24,000 кадра/сек
Цветовое пространство : YUV
Субдискретизация насыщенности : 4:2:0
Битовая глубина : 8 бит
Тип развёртки : Прогрессивная
Бит/(Пиксели*Кадры) : 0.297
Размер потока : 6,90 Гбайт (89%)
Библиотека кодирования : x264 core 136 r2348+704+51 d1baef6 tMod [8-bit@all X86_64]
Настройки программы : cabac=1 / ref=5 / deblock=1:-3:-3 / analyse=0x3:0x133 / me=umh / subme=11 / psy=1 / fade_compensate=0.00 / psy_rd=1.05:0.05 / mixed_ref=1 / me_range=64 / chroma_me=1 / trellis=2 / 8x8dct=1 / cqm=0 / deadzone=21,11 / fast_pskip=0 / chroma_qp_offset=-3 / threads=12 / lookahead_threads=2 / sliced_threads=0 / nr=0 / decimate=0 / interlaced=0 / bluray_compat=0 / constrained_intra=0 / fgo=0 / bframes=8 / b_pyramid=2 / b_adapt=2 / b_bias=0 / direct=3 / weightb=1 / open_gop=0 / weightp=2 / keyint=250 / keyint_min=24 / scenecut=40 / intra_refresh=0 / rc_lookahead=120 / rc=2pass / mbtree=0 / bitrate=11000 / ratetol=1.0 / qcomp=0.75 / qpmin=0:0:0 / qpmax=69:69:69 / qpstep=4 / cplxblur=20.0 / qblur=0.5 / vbv_maxrate=50000 / vbv_bufsize=50000 / nal_hrd=none / ip_ratio=1.40 / pb_ratio=1.30 / aq=3:0.90 / aq-sensitivity=10.00 / aq-factor=1.00:1.00:1.00 / aq2=0 / aq3=0
Default : Да
Forced : Нет
Коэффициенты матрицы : BT.709
Аудио #1
Идентификатор : 2
Формат : AC-3
Формат/Информация : Audio Coding 3
Расширение режима : CM (complete main)
Параметр Endianness формата : Big
Идентификатор кодека : A_AC3
Продолжительность : 1 ч. 31 м.
Вид битрейта : Постоянный
Битрейт : 448 Кбит/сек
Каналы : 6 каналов
Расположение каналов : Front: L C R, Side: L R, LFE
Частота : 48,0 КГц
Битовая глубина : 16 бит
Метод сжатия : С потерями
Размер потока : 294 Мбайт (4%)
Заголовок : Дубляж
Язык : Russian
Default : Да
Forced : Нет
Аудио #2
Идентификатор : 3
Формат : AC-3
Формат/Информация : Audio Coding 3
Расширение режима : CM (complete main)
Параметр Endianness формата : Big
Идентификатор кодека : A_AC3
Продолжительность : 1 ч. 31 м.
Вид битрейта : Постоянный
Битрейт : 640 Кбит/сек
Каналы : 6 каналов
Расположение каналов : Front: L C R, Side: L R, LFE
Частота : 48,0 КГц
Битовая глубина : 16 бит
Метод сжатия : С потерями
Размер потока : 421 Мбайт (5%)
Язык : French
Default : Нет
Forced : Нет
Текст #1
Идентификатор : 4
Формат : UTF-8
Идентификатор кодека : S_TEXT/UTF8
Идентификатор кодека/Информация : UTF-8 Plain Text
Язык : Russian
Default : Да
Forced : Нет
Текст #2
Идентификатор : 5
Формат : UTF-8
Идентификатор кодека : S_TEXT/UTF8
Идентификатор кодека/Информация : UTF-8 Plain Text
Язык : English
Default : Нет
Forced : Нет
Меню
00:00:00.000 : en:00:00:00.000
00:06:30.500 : en:00:06:30.500
00:15:49.917 : en:00:15:49.917
00:22:09.542 : en:00:22:09.542
00:31:07.167 : en:00:31:07.167
00:38:02.500 : en:00:38:02.500
00:44:55.125 : en:00:44:55.125
00:53:15.542 : en:00:53:15.542
01:02:37.542 : en:01:02:37.542
01:07:48.208 : en:01:07:48.208
01:17:01.083 : en:01:17:01.083
01:26:40.708 : en:01:26:40.708

Рецензия:

«Эйяфьядлайёкюдль»: Единство и борьба противоположностей.
Название ледника на юге Исландии, которое стало известно всему миру благодаря извержению надобящегося под ним вулкана, является почти непроизносимым для тех, кто не говорит по-исландски (однако, Бен Стиллер во время съемок «Тайной жизни Уолтера Митти», большей частью проходивших именно в Исландии, это трудное слово заучил). Режиссер Александр Коффре решился на смелый шаг и сделал «Эйяфьядлайёкюдль» названием своего фильма.
Валери и Ален — супруги, которые развелись много лет назад, но теперь их взрослая дочь выходит замуж и им снова предстоит встретиться. «Долгожданное» рандеву произойдет на борту самолета, вынужденного изменить свой курс из-за извержения Эйяфьядлайёкюдля (авиакомпании действительно были вынуждены пойти на ограничения в апереле-мае 2010-го года), и с этого момента бывшие муж и жена начнут свое путешествие, которое благодаря их взаимной ненависти превратится в настоящее испытание.
Рассказ о двух людях, которых когда-то объединяло общее чувство, а теперь они стали антиподами — циничная богачка Валери и бедный романтик Ален — безусловно заслуживает внимания. Прежде всего по той причине, что Коффре не пытается в тысячный раз навязать зрителю «повесть о вечной любви», он лишь хочет показать, что сильные чувства не проходят, только лишь трансформируется в нечто менее романтичное, не давая каждому из влюбленных ни минуты покоя и заставляя вытворять разные безумные вещи от обливания лимонадом до желания выбросить оппонента из минивэна прямо на ходу.
Благодаря тому, что оператором «Эйяфьядлайёкюдля» был выбран более чем опытный Пьер Коттро, кинематография просто отменна: яркие краски, общие планы живописных европейских пейзажей и так как большая часть съемок проходила летом в солнечные дни, цвета в фильме ослепительной чистоты, которую далеко не всегда можно достигнуть цветокоррекцией. Недостаток же фильма, не позволяющий ему стать не просто отличной, а превосходной комедией заключается в нерешительности режиссера, который не может определиться, к чьей манере он склоняется больше — Франсиса Вебера или Кристиана Клавье. С одной стороны Коффре позволяет себе немного романтизма и сентиментальности, а с другой — допускает моменты того абсурдного веселья, лучше (и сложнее в исполнении) которого пока никто не придумал. Балансируя на этой грани постановщик «Эйяфьядлайёкюдля» все же наверно тяготеет к Клавье, так как оставляет финал в некоторой степени открытым и лишенным приторности, которой часто грешат современные комедии.
Из 20-ти миллионов бюджета 3,5 ушло на гонорар Дэни Буна. Бун при своей непримечательной внешности обладает ярким талантом, но все же такие затраты на главного актера в соотношении с размером бюджета выглядят по меньшей мере странно. К примеру, при 140-нном бюджете «Первого Мстителя» гонорар Криса Эванса составил 300 тысяч долларов, учитывая, что прибыль от проекта о Капитане Америка и рядовой французской комедии просто несопоставима. Экранные страсти Дэни Бун разыгрывает с женой Франсуа Клюзе, Валери Боннетон, которая смотрится на экране очень органично, в отличие от многих других современных актрис (к тому же Валери, учитывая, что ей 44-ре года, находится в прекрасной физической форме и демонстрирует это в фильме, разгуливая в бюстгальтере). Кроме взрывной парочки Бун-Боннетон эпизодическую роль исполнил Дени Меноше, он воплотил на экране образ несколько невменяемого священника Эзакиэля, который переоборудовал фургончик в храм на колесах
Полуторачасовое путешествие из Франции в Грецию, примет в «Эйяфьядлайёкюдле» очертания такие же запутанные, как и название исландского вулкана. Лучезарная комедия про Валери и Алена до высшей лиги не дотягивает совсем чуть-чуть, но при этом гарантированно дарит зрителю немного радости. Не утверждая, что любовь бывает вечной и безоблачной, французский режиссер Александр Коффре, выдвигает другой куда более важный тезис о том, что иногда она все-таки случается.
Скриншоты:

Время раздачи: с 10:00 до 20:00 (GMT+2) - до 10 скачавшихНе забываем говорить

[Цитировать]



Показать сообщения:    

Текущее время: 10-Дек 04:13

Часовой пояс: UTC + 3


Вы не можете начинать темы
Вы не можете отвечать на сообщения
Вы не можете редактировать свои сообщения
Вы не можете удалять свои сообщения
Вы не можете голосовать в опросах
Вы не можете прикреплять файлы к сообщениям
Вы не можете скачивать файлы

!ВНИМАНИЕ!
Сайт не предоставляет электронные версии произведений, а занимается лишь коллекционированием и каталогизацией ссылок, присылаемых и публикуемых на форуме нашими читателями. Если вы являетесь правообладателем какого-либо представленного материала и не желаете, чтобы ссылка на него находилась в нашем каталоге, свяжитесь с нами, и мы незамедлительно удалим ее. Файлы для обмена на трекере предоставлены пользователями сайта, и администрация не несет ответственности за их содержание. Просьба не заливать файлы, защищенные авторскими правами, а также файлы нелегального содержания!