[ Сегодня идет свободное скачивание без начисления Download ]


Статистика раздачи
Нет
 
   
 
Top  
 
 
-Репортаж со свадьбы / [REC]3 Genesis (2012) BDRip BDRip [1080p]- Год выпуска: 2012
Производство: Испания
Жанр: Комедия, Триллер, Ужасы
Режиссер: Пако Пласа
Продюсер: Карлос Фернандес, Альберто Марини, Жауме Балагуэро
Актеры: Летисия Долера, Хавьер Боте, Диего Мартин, Алекс Моннер, Исмаэль Мартинес, Мирейа Рос, Карла Ниэто, Ана Изабель Веласкес, Кармен Контрерас, Клер Башет
Описание фильма: Столь знаменательное событие, как свадьба, превращается в сущий ад, и герои вынуждены не радоваться и праздновать, а спасать свои жизни в тот самый момент, когда на мероприятии происходит нечто ужасное — гости начинают пожирать друг друга, передавая заразу, словно вирус бешенства, при укусе…
Перевод: Дублированный, авторский (одноголосый закадровый) А. Дольский, любительский (одноголосый закадровый) А. Матвеев [Doctor_Joker]
Субтитры: Вшитые отключаемые
Язык субтитров: Русский, английский

Дата мировой премьеры: 9 марта 2012 года
Дата российской премьеры: 7 ноября 2013 года
Дата выхода DVD релиза: 6 марта 2014 года
Продолжительность: 01:20:16
Качество видео: BDRip [1080p]
Видеокодек: MPEG4/AVC
Битрейт видео: ~10.4 Мбит/сек
Размер кадра: 1920x1080
Аудио 1: AC3, 6 каналов, 384 Кбит/сек | Лицензия
Аудио 2: AC3, 6 каналов, 384 Кбит/сек | А. Дольский
Аудио 3: AC3, 6 каналов, 384 Кбит/сек | А. Матвеев
Аудио 4: AC3, 6 каналов, 640 Кбит/сек | Испанский (оригинал)
Релиз группа:

MediaInfo:

Общее
Уникальный идентификатор : 220255440825457805668211687108529604602 (0xA5B3A7A6DEEB53C2BE24A01BA27FC7FA)
Полное имя : REC 3. Genesis. (2012) BDRip 1080p.mkv
Формат : Matroska
Версия формата : Version 2
Размер файла : 6,99 Гбайт
Продолжительность : 1 ч. 20 м.
Общий поток : 12,5 Мбит/сек
Название фильма : REC 3. Genesis. 2012
Дата кодирования : UTC 2014-06-11 19:20:59
Программа кодирования : mkvmerge v5.8.0 ('No Sleep / Pillow') built on Sep 2 2012 15:37:04
Библиотека кодирования : libebml v1.2.3 + libmatroska v1.3.0
Видео
Идентификатор : 1
Формат : AVC
Формат/Информация : Advanced Video Codec
Профиль формата : [email protected]
Параметр CABAC формата : Да
Параметр ReFrames формата : 4 кадра
Идентификатор кодека : V_MPEG4/ISO/AVC
Продолжительность : 1 ч. 20 м.
Битрейт : 10,4 Мбит/сек
Ширина : 1920 пикселей
Высота : 1080 пикселей
Соотношение сторон : 16:9
Режим частоты кадров : Постоянный
Частота кадров : 24,000 кадра/сек
Цветовое пространство : YUV
Субдискретизация насыщенности : 4:2:0
Битовая глубина : 8 бит
Тип развёртки : Прогрессивная
Бит/(Пиксели*Кадры) : 0.209
Размер потока : 5,84 Гбайт (84%)
Заголовок : HDS
Библиотека кодирования : x264 core 125 r2200 999b753
Настройки программы : cabac=1 / ref=4 / deblock=1:-3:-3 / analyse=0x3:0x113 / me=umh / subme=10 / psy=1 / psy_rd=1.00:0.00 / mixed_ref=1 / me_range=32 / chroma_me=1 / trellis=2 / 8x8dct=1 / cqm=0 / deadzone=21,11 / fast_pskip=0 / chroma_qp_offset=-2 / threads=12 / lookahead_threads=2 / sliced_threads=0 / nr=0 / decimate=1 / interlaced=0 / bluray_compat=0 / constrained_intra=0 / bframes=8 / b_pyramid=2 / b_adapt=2 / b_bias=0 / direct=1 / weightb=1 / open_gop=0 / weightp=0 / keyint=240 / keyint_min=24 / scenecut=40 / intra_refresh=0 / rc_lookahead=40 / rc=crf / mbtree=1 / crf=17.7 / qcomp=0.60 / qpmin=0 / qpmax=51 / qpstep=4 / vbv_maxrate=40000 / vbv_bufsize=30000 / crf_max=0.0 / nal_hrd=none / ip_ratio=1.20 / aq=1:1.00
Язык : Spanish
Default : Да
Forced : Нет
Аудио #1
Идентификатор : 2
Формат : AC-3
Формат/Информация : Audio Coding 3
Расширение режима : CM (complete main)
Параметр Endianness формата : Big
Идентификатор кодека : A_AC3
Продолжительность : 1 ч. 20 м.
Вид битрейта : Постоянный
Битрейт : 384 Кбит/сек
Каналы : 6 каналов
Расположение каналов : Front: L C R, Side: L R, LFE
Частота : 48,0 КГц
Битовая глубина : 16 бит
Метод сжатия : С потерями
Размер потока : 220 Мбайт (3%)
Заголовок : Dub | Лицензия
Язык : Russian
Default : Да
Forced : Нет
Аудио #2
Идентификатор : 3
Формат : AC-3
Формат/Информация : Audio Coding 3
Расширение режима : CM (complete main)
Параметр Endianness формата : Big
Идентификатор кодека : A_AC3
Продолжительность : 1 ч. 20 м.
Вид битрейта : Постоянный
Битрейт : 384 Кбит/сек
Каналы : 6 каналов
Расположение каналов : Front: L C R, Side: L R, LFE
Частота : 48,0 КГц
Битовая глубина : 16 бит
Метод сжатия : С потерями
Размер потока : 220 Мбайт (3%)
Заголовок : А. Дольский
Язык : Russian
Default : Нет
Forced : Нет
Аудио #3
Идентификатор : 4
Формат : AC-3
Формат/Информация : Audio Coding 3
Расширение режима : CM (complete main)
Параметр Endianness формата : Big
Идентификатор кодека : A_AC3
Продолжительность : 1 ч. 20 м.
Вид битрейта : Постоянный
Битрейт : 384 Кбит/сек
Каналы : 6 каналов
Расположение каналов : Front: L C R, Side: L R, LFE
Частота : 48,0 КГц
Битовая глубина : 16 бит
Метод сжатия : С потерями
Размер потока : 220 Мбайт (3%)
Заголовок : А. Матвеев
Язык : Russian
Default : Нет
Forced : Нет
Аудио #4
Идентификатор : 5
Формат : AC-3
Формат/Информация : Audio Coding 3
Расширение режима : CM (complete main)
Параметр Endianness формата : Big
Идентификатор кодека : A_AC3
Продолжительность : 1 ч. 20 м.
Вид битрейта : Постоянный
Битрейт : 640 Кбит/сек
Каналы : 6 каналов
Расположение каналов : Front: L C R, Side: L R, LFE
Частота : 48,0 КГц
Битовая глубина : 16 бит
Метод сжатия : С потерями
Размер потока : 367 Мбайт (5%)
Язык : Spanish
Default : Нет
Forced : Нет
Текст #1
Идентификатор : 6
Формат : UTF-8
Идентификатор кодека : S_TEXT/UTF8
Идентификатор кодека/Информация : UTF-8 Plain Text
Заголовок : Full
Язык : Russian
Default : Нет
Forced : Нет
Текст #2
Идентификатор : 7
Формат : UTF-8
Идентификатор кодека : S_TEXT/UTF8
Идентификатор кодека/Информация : UTF-8 Plain Text
Заголовок : Full
Язык : English
Default : Нет
Forced : Нет
Меню
00:00:00.000 : en:00:00:00.000
00:06:20.046 : en:00:06:20.046
00:10:10.610 : en:00:10:10.610
00:14:46.886 : en:00:14:46.886
00:21:54.188 : en:00:21:54.188
00:25:24.857 : en:00:25:24.857
00:29:29.184 : en:00:29:29.184
00:33:52.572 : en:00:33:52.572
00:40:58.706 : en:00:40:58.706
00:46:42.133 : en:00:46:42.133
00:50:24.104 : en:00:50:24.104
00:56:04.945 : en:00:56:04.945
01:00:00.639 : en:01:00:00.639
01:05:26.381 : en:01:05:26.381
01:09:53.147 : en:01:09:53.147
01:14:32.468 : en:01:14:32.468
Скриншоты:

Время раздачи: 24/7

[Цитировать]



Показать сообщения:    

Текущее время: 05-Дек 13:38

Часовой пояс: UTC + 3


Вы не можете начинать темы
Вы не можете отвечать на сообщения
Вы не можете редактировать свои сообщения
Вы не можете удалять свои сообщения
Вы не можете голосовать в опросах
Вы не можете прикреплять файлы к сообщениям
Вы не можете скачивать файлы

!ВНИМАНИЕ!
Сайт не предоставляет электронные версии произведений, а занимается лишь коллекционированием и каталогизацией ссылок, присылаемых и публикуемых на форуме нашими читателями. Если вы являетесь правообладателем какого-либо представленного материала и не желаете, чтобы ссылка на него находилась в нашем каталоге, свяжитесь с нами, и мы незамедлительно удалим ее. Файлы для обмена на трекере предоставлены пользователями сайта, и администрация не несет ответственности за их содержание. Просьба не заливать файлы, защищенные авторскими правами, а также файлы нелегального содержания!