[ Сегодня идет свободное скачивание без начисления Download ]


Статистика раздачи
Нет
 
   
 
Top  
 
 
-Целуя девушек / Kiss the Girls (1997) BDRip
« Детектив выслеживает серийного убийцу. Его единственная надежда - женщина, которой удалось спастись »
- Год выпуска: 1997
Производство: США | Paramount Pictures, Rysher Entertainment
Жанр: Триллер, Драма, Криминал
Описание фильма:
Похищено восемь молодых красивых и талантливых женщин. Все они могут погибнуть, если полицейский Алекс Кросс и свидетельница Кейт Мактайернан не смогут обнаружить логово неуловимого маньяка, который называет себя Казанова.
От городков Дальнего Юга до побережья Калифорнии разворачивается охота. Энергичной свидетельнице Мактайрнан единственной удалось вырваться из лап Казановы, и теперь ее цель — освободить оставшуюся в секретном логове подругу.
Режиссер: Гэри Фледер
Актеры: Морган Фриман, Эшли Джадд, Кэри Элвис, Алекс МакАртур, Тони Голдуин, Джей О. Сэндерс, Билл Нанн, Брайан Кокс, Ричард Т. Джонс, Рома Маффиа
Продолжительность: 01:55:36
Качество видео: BDRip [1080p]
Перевод: Многоголосый, Двухголосый х2, Любительский одноголосый
Язык субтитров: Русский, Английский
Вид субтитров: Вшитые, отключаемые

Дата мировой премьеры: 10 сентября 1997
Дата выхода DVD релиза: 2 февраля 2010, «Юниверсал Пикчерс Рус»
Видео: MPEG-4 AVC/H.264, 1920x818 (2.35:1), 23,976 fps, ~15.5 Mbps, 0.413 bit/pixel
Аудио №1: 48 kHz, AC-3, 6 ch, Front: L C R, Side: L R, LFE ~448 kbps avg | MVO R5
Аудио №2: 48 kHz, AC-3, 6 ch, Front: L C R, Side: L R, LFE ~384 kbps avg | DVO НТВ +
Аудио №3: 48 kHz, AC3, 2/0 (L,R) ch, ~192 kbps avg | DVO Премьер Видео
Аудио №4: 48 kHz, DTS, 3/2 (L,C,R,l,r) + LFE ch, ~1509 kbps avg | VO Д. Есарев
Аудио №5: 48 kHz, DTS, 3/2 (L,C,R,l,r) + LFE ch, ~1509 kbps avg | Оригинал (английский)
Сэмпл: Скачать

MediaInfo

General
Unique ID                      : 202149558672972068853030980023256406266 (0x981496BD84413E82B557C7807008D8FA)
Complete name                  : I:\Фильмы\Celuja.devushek.1997.BDRip.1080p.mkv
Format                         : Matroska
Format version                 : Version 4 / Version 2
File size                      : 16.1 GiB
Duration                       : 1h 55mn
Overall bit rate               : 20.0 Mbps
Movie name                     : Kiss the Girls (1997)
Encoded date                   : UTC 2014-06-10 05:45:15
Writing application            : mkvmerge v6.9.1 ('Blue Panther') 64bit built on Apr 18 2014 18:23:38
Writing library                : libebml v1.3.0 + libmatroska v1.4.1
Attachment                     : Yes / Yes
Video
ID                             : 1
Format                         : AVC
Format/Info                    : Advanced Video Codec
Format profile                 : [url=mailto:[email protected]][email protected][/url]
Format settings, CABAC         : Yes
Format settings, ReFrames      : 5 frames
Codec ID                       : V_MPEG4/ISO/AVC
Duration                       : 1h 55mn
Bit rate                       : 15.5 Mbps
Width                          : 1 920 pixels
Height                         : 818 pixels
Display aspect ratio           : 2.35:1
Frame rate mode                : Constant
Frame rate                     : 23.976 fps
Color space                    : YUV
Chroma subsampling             : 4:2:0
Bit depth                      : 8 bits
Scan type                      : Progressive
Bits/(Pixel*Frame)             : 0.413
Stream size                    : 12.5 GiB (78%)
Title                          : Release for HDCLUB
Writing library                : x264 core 142 r2431+42 c69a006 tMod [[email protected]:2:0 X86_64]
Encoding settings              : cabac=1 / ref=5 / deblock=1:-2:-2 / analyse=0x3:0x133 / me=umh / subme=11 / psy=1 / fade_compensate=0.00 / psy_rd=1.00:0.00 / mixed_ref=1 / me_range=32 / chroma_me=1 / trellis=2 / 8x8dct=1 / cqm=0 / deadzone=21,11 / fast_pskip=1 / chroma_qp_offset=-2 / threads=12 / lookahead_threads=2 / sliced_threads=0 / nr=0 / decimate=1 / interlaced=0 / bluray_compat=0 / constrained_intra=0 / fgo=0 / bframes=7 / b_pyramid=2 / b_adapt=2 / b_bias=0 / direct=1 / weightb=1 / open_gop=0 / weightp=2 / keyint=250 / keyint_min=23 / scenecut=40 / intra_refresh=0 / rc_lookahead=60 / rc=crf / mbtree=0 / crf=17.0000 / qcomp=0.70 / qpmin=0:0:0 / qpmax=69:69:69 / qpstep=4 / vbv_maxrate=62500 / vbv_bufsize=78125 / crf_max=0.0 / nal_hrd=none / filler=0 / ip_ratio=1.40 / pb_ratio=1.30 / aq=4:0.80 / aq-sensitivity=11.00 / aq-factor=1.00:1.00:1.00 / aq2=1:0.60 / aq2-sensitivity=9.00 / aq2-factor=1.00:1.00:1.00 / aq3=1:[0.60:0.60]:[0.60:0.60]:[0.60:0.60]:[0.60:0.60] / aq3-sensitivity=10.00 / aq3-factor=[1.00:1.00]:[1.00:1.00]:[1.00:1.00] / aq3-boundary=192:64:24
Language                       : English
Default                        : Yes
Forced                         : No
Color primaries                : BT.709
Transfer characteristics       : BT.709
Matrix coefficients            : BT.709
Audio #1
ID                             : 2
Format                         : AC-3
Format/Info                    : Audio Coding 3
Mode extension                 : CM (complete main)
Format settings, Endianness    : Big
Codec ID                       : A_AC3
Duration                       : 1h 55mn
Bit rate mode                  : Constant
Bit rate                       : 448 Kbps
Channel(s)                     : 6 channels
Channel positions              : Front: L C R, Side: L R, LFE
Sampling rate                  : 48.0 KHz
Bit depth                      : 16 bits
Compression mode               : Lossy
Stream size                    : 370 MiB (2%)
Title                          : MVO, Universal
Language                       : Russian
Default                        : Yes
Forced                         : No
Audio #2
ID                             : 3
Format                         : AC-3
Format/Info                    : Audio Coding 3
Mode extension                 : CM (complete main)
Format settings, Endianness    : Big
Codec ID                       : A_AC3
Duration                       : 1h 55mn
Bit rate mode                  : Constant
Bit rate                       : 384 Kbps
Channel(s)                     : 6 channels
Channel positions              : Front: L C R, Side: L R, LFE
Sampling rate                  : 48.0 KHz
Bit depth                      : 16 bits
Compression mode               : Lossy
Stream size                    : 318 MiB (2%)
Title                          : DVO, НТВ+
Language                       : Russian
Default                        : No
Forced                         : No
Audio #3
ID                             : 4
Format                         : AC-3
Format/Info                    : Audio Coding 3
Mode extension                 : CM (complete main)
Format settings, Endianness    : Big
Codec ID                       : A_AC3
Duration                       : 1h 55mn
Bit rate mode                  : Constant
Bit rate                       : 192 Kbps
Channel(s)                     : 2 channels
Channel positions              : Front: L R
Sampling rate                  : 48.0 KHz
Bit depth                      : 16 bits
Compression mode               : Lossy
Stream size                    : 159 MiB (1%)
Title                          : DVO, Премьер
Language                       : Russian
Default                        : No
Forced                         : No
Audio #4
ID                             : 5
Format                         : DTS
Format/Info                    : Digital Theater Systems
Mode                           : 16
Format settings, Endianness    : Big
Codec ID                       : A_DTS
Duration                       : 1h 55mn
Bit rate mode                  : Constant
Bit rate                       : 1 509 Kbps
Channel(s)                     : 6 channels
Channel positions              : Front: L C R, Side: L R, LFE
Sampling rate                  : 48.0 KHz
Bit depth                      : 24 bits
Compression mode               : Lossy
Stream size                    : 1.22 GiB (8%)
Title                          : VO, Есарев
Language                       : Russian
Default                        : No
Forced                         : No
Audio #5
ID                             : 6
Format                         : DTS
Format/Info                    : Digital Theater Systems
Mode                           : 16
Format settings, Endianness    : Big
Codec ID                       : A_DTS
Duration                       : 1h 55mn
Bit rate mode                  : Constant
Bit rate                       : 1 509 Kbps
Channel(s)                     : 6 channels
Channel positions              : Front: L C R, Side: L R, LFE
Sampling rate                  : 48.0 KHz
Bit depth                      : 24 bits
Compression mode               : Lossy
Stream size                    : 1.22 GiB (8%)
Language                       : English
Default                        : No
Forced                         : No
Text #1
ID                             : 7
Format                         : UTF-8
Codec ID                       : S_TEXT/UTF8
Codec ID/Info                  : UTF-8 Plain Text
Language                       : Russian
Default                        : No
Forced                         : No
Text #2
ID                             : 8
Format                         : UTF-8
Codec ID                       : S_TEXT/UTF8
Codec ID/Info                  : UTF-8 Plain Text
Language                       : English
Default                        : No
Forced                         : No
Menu
00:00:00.000                   : en:First Love
00:02:31.151                   : en:I'm a Forensic Psychologist
00:07:45.715                   : en:Naomi's Missing
00:10:00.225                   : en:Megan
00:11:13.756                   : en:The Research Triangle
00:19:16.530                   : en:Dr. Mctiernan
00:23:37.875                   : en:This Guy's A Collector
00:24:59.873                   : en:Casanova Declares Himself
00:29:10.207                   : en:Not a Clue
00:32:42.752                   : en:The Lair
00:36:04.329                   : en:Dr. Sachs
00:38:06.367                   : en:Never Call Out
00:40:59.957                   : en:The Odalisque
00:43:34.320                   : en:Escape
00:48:11.097                   : en:Kate Recovers
00:53:24.827                   : en:Blame Me
00:55:58.438                   : en:Hypnosis Session
00:59:20.766                   : en:Take Me with You
01:02:31.706                   : en:Rudolph
01:07:51.651                   : en:Blending In
01:11:04.635                   : en:Gone in the Night
01:15:28.858                   : en:The Shrine
01:18:48.891                   : en:Dr. Sachs Revisited
01:25:22.826                   : en:Closing In
01:36:29.867                   : en:Saved
01:39:23.791                   : en:Tell Me What Truth Is
Скриншоты:

Время раздачи: 10:00 - 24:00

[Цитировать]



Показать сообщения:    

Текущее время: 05-Дек 23:46

Часовой пояс: UTC + 3


Вы не можете начинать темы
Вы не можете отвечать на сообщения
Вы не можете редактировать свои сообщения
Вы не можете удалять свои сообщения
Вы не можете голосовать в опросах
Вы не можете прикреплять файлы к сообщениям
Вы не можете скачивать файлы

!ВНИМАНИЕ!
Сайт не предоставляет электронные версии произведений, а занимается лишь коллекционированием и каталогизацией ссылок, присылаемых и публикуемых на форуме нашими читателями. Если вы являетесь правообладателем какого-либо представленного материала и не желаете, чтобы ссылка на него находилась в нашем каталоге, свяжитесь с нами, и мы незамедлительно удалим ее. Файлы для обмена на трекере предоставлены пользователями сайта, и администрация не несет ответственности за их содержание. Просьба не заливать файлы, защищенные авторскими правами, а также файлы нелегального содержания!