[ Сегодня идет свободное скачивание без начисления Download ]


Статистика раздачи
Нет
 
   
 
Top  
 
 
-Сын Божий / Son of God (2014) HDRip- Год выпуска: 2014
Производство: США | Hearst Entertainment Productions Inc
Жанр: Драма
Перевод: Одноголосый закадровый, любительский [qwerty]
Субтитры: Отсутствуют
Режиссер: Кристофер Спенсер
Актеры: Диого Моргадо, Эмбер Роуз Рева, Рома Дауни, Себастьян Кнапп, Уильям Хьюстон, Пол Нопс, Дарси, Дэвид Ринтул, Гари Оливер, Стюарт Скудамор, Нонсо Анози, Конан Стивенс, Джасса Ахлувалиа, Лэнгли Кирквуд, Дауд Шах, Лейла Миммек, Джо Коэн
Описание фильма: История Иисуса Христа от Рождения, до Его учения, Распятия и Вознесения.

Дата мировой премьеры: 28 февраля 2014
Продолжительность: 02:18:13
Качество видео: HDRip
Видеокодек: MPEG-4 AVC/H.264
Битрейт видео: ~937 kbps avg, 23.976 fps, 0.181 bit/pixel
Размер кадра: 720x300 (2.40:1)
Аудио 1: AC3 2.0, 256 kbps - Русский
Аудио 2: AC3 2.0, 256 kbps - Английский

MediaInfo

Общее
Уникальный идентификатор                 : 243750183953510486875478280480977112973 (0xB76093EC2E81FB47BC93F9542830CF8D)
Полное имя                               : D:\Фильмы\Syn Bozhij.2014.L1.HDRip.AVC.1400MB.mkv
Формат                                   : Matroska
Версия формата                           : Version 2
Размер файла                             : 1,43 Гбайт
Продолжительность                        : 2 ч. 18 м.
Общий поток                              : 1479 Кбит/сек
Название фильма                          : by_zzZGVvv
Дата кодирования                         : UTC 2014-06-23 05:05:46
Программа кодирования                    : mkvmerge v5.8.0 ('No Sleep / Pillow') built on Sep  2 2012 15:37:04
Библиотека кодирования                   : libebml v1.2.3 + libmatroska v1.3.0
Видео
Идентификатор                            : 1
Формат                                   : AVC
Формат/Информация                        : Advanced Video Codec
Профиль формата                          : [url=mailto:High@L3.1]High@L3.1[/url]
Параметр CABAC формата                   : Да
Параметр ReFrames формата                : 5 кадров
Идентификатор кодека                     : V_MPEG4/ISO/AVC
Продолжительность                        : 2 ч. 18 м.
Битрейт                                  : 937 Кбит/сек
Ширина                                   : 720 пикселей
Высота                                   : 300 пикселей
Соотношение сторон                       : 2,40:1
Режим частоты кадров                     : Постоянный
Частота кадров                           : 23,976 кадра/сек
Цветовое пространство                    : YUV
Субдискретизация насыщенности            : 4:2:0
Битовая глубина                          : 8 бит
Тип развёртки                            : Прогрессивная
Бит/(Пиксели*Кадры)                      : 0.181
Размер потока                            : 926 Мбайт (63%)
Библиотека кодирования                   : x264 core 142 r2431 ac76440
Настройки программы                      : cabac=1 / ref=5 / deblock=1:-2:-2 / analyse=0x3:0x113 / me=umh / subme=8 / psy=1 / psy_rd=1.00:0.00 / mixed_ref=1 / me_range=16 / chroma_me=1 / trellis=1 / 8x8dct=1 / cqm=0 / deadzone=21,11 / fast_pskip=1 / chroma_qp_offset=-2 / threads=12 / lookahead_threads=2 / sliced_threads=0 / nr=0 / decimate=1 / interlaced=0 / bluray_compat=0 / constrained_intra=0 / bframes=3 / b_pyramid=2 / b_adapt=2 / b_bias=0 / direct=3 / weightb=1 / open_gop=0 / weightp=2 / keyint=240 / keyint_min=24 / scenecut=40 / intra_refresh=0 / rc_lookahead=50 / rc=crf / mbtree=1 / crf=19.0 / qcomp=0.60 / qpmin=0 / qpmax=69 / qpstep=4 / ip_ratio=1.40 / aq=1:0.70
Язык                                     : English
Default                                  : Да
Forced                                   : Нет
Коэффициенты матрицы                     : BT.709
Аудио #1
Идентификатор                            : 2
Формат                                   : AC-3
Формат/Информация                        : Audio Coding 3
Расширение режима                        : CM (complete main)
Параметр Endianness формата              : Big
Идентификатор кодека                     : A_AC3
Продолжительность                        : 2 ч. 18 м.
Вид битрейта                             : Постоянный
Битрейт                                  : 256 Кбит/сек
Каналы                                   : 2 канала
Расположение каналов                     : Front: L R
Частота                                  : 48,0 КГц
Битовая глубина                          : 16 бит
Метод сжатия                             : С потерями
Размер потока                            : 253 Мбайт (17%)
Заголовок                                : VO
Язык                                     : Russian
Default                                  : Да
Forced                                   : Нет
Аудио #2
Идентификатор                            : 3
Формат                                   : AC-3
Формат/Информация                        : Audio Coding 3
Расширение режима                        : CM (complete main)
Параметр Endianness формата              : Big
Идентификатор кодека                     : A_AC3
Продолжительность                        : 2 ч. 18 м.
Вид битрейта                             : Постоянный
Битрейт                                  : 256 Кбит/сек
Каналы                                   : 2 канала
Расположение каналов                     : Front: L R
Частота                                  : 48,0 КГц
Битовая глубина                          : 16 бит
Метод сжатия                             : С потерями
Размер потока                            : 253 Мбайт (17%)
Язык                                     : English
Default                                  : Нет
Forced                                   : Нет
Меню
00:00:00.000                             : en:00:00:00.000
00:02:42.412                             : en:00:02:42.412
00:04:37.486                             : en:00:04:37.486
00:07:39.876                             : en:00:07:39.876
00:12:54.190                             : en:00:12:54.190
00:17:53.197                             : en:00:17:53.197
00:21:30.915                             : en:00:21:30.915
00:22:48.075                             : en:00:22:48.075
00:25:31.613                             : en:00:25:31.613
00:27:20.389                             : en:00:27:20.389
00:31:43.110                             : en:00:31:43.110
00:36:24.140                             : en:00:36:24.140
00:39:06.970                             : en:00:39:06.970
00:43:51.462                             : en:00:43:51.462
00:47:10.703                             : en:00:47:10.703
00:50:26.023                             : en:00:50:26.023
00:54:30.100                             : en:00:54:30.100
00:56:23.797                             : en:00:56:23.797
00:59:18.430                             : en:00:59:18.430
01:02:31.289                             : en:01:02:31.289
01:08:59.344                             : en:01:08:59.344
01:13:03.796                             : en:01:13:03.796
01:16:17.198                             : en:01:16:17.198
01:21:48.904                             : en:01:21:48.904
01:24:13.924                             : en:01:24:13.924
01:28:03.278                             : en:01:28:03.278
01:29:59.394                             : en:01:29:59.394
01:35:30.558                             : en:01:35:30.558
01:39:38.347                             : en:01:39:38.347
01:44:03.195                             : en:01:44:03.195
01:48:44.810                             : en:01:48:44.810
01:54:08.884                             : en:01:54:08.884
02:02:08.404                             : en:02:02:08.404
02:05:21.764                             : en:02:05:21.764
02:09:47.154                             : en:02:09:47.154
02:14:19.260                             : en:02:14:19.260
Скриншоты:
Время раздачи: Круглосуточно (До 5-ти скачавших)

[Цитировать]



Показать сообщения:    

Текущее время: 02-Дек 22:55

Часовой пояс: UTC + 3


Вы не можете начинать темы
Вы не можете отвечать на сообщения
Вы не можете редактировать свои сообщения
Вы не можете удалять свои сообщения
Вы не можете голосовать в опросах
Вы не можете прикреплять файлы к сообщениям
Вы не можете скачивать файлы

!ВНИМАНИЕ!
Сайт не предоставляет электронные версии произведений, а занимается лишь коллекционированием и каталогизацией ссылок, присылаемых и публикуемых на форуме нашими читателями. Если вы являетесь правообладателем какого-либо представленного материала и не желаете, чтобы ссылка на него находилась в нашем каталоге, свяжитесь с нами, и мы незамедлительно удалим ее. Файлы для обмена на трекере предоставлены пользователями сайта, и администрация не несет ответственности за их содержание. Просьба не заливать файлы, защищенные авторскими правами, а также файлы нелегального содержания!