[ Сегодня идет свободное скачивание без начисления Download ]


Статистика раздачи
Нет
 
   
 
Top  
 
 
-Подарок с характером (2014) WEBRip [720p]- Год выпуска: 2014
Производство: Россия, Fresh Films
Жанр: Семейный, Приключения, Комедия
Перевод: Не требуется (Русский)
Субтитры: Отсутствуют
Режиссер: Карен Оганесян
Продюсер: Армен Ананикян, Михаил Галустян, Макс Олейников
Актеры: Михаил Галустян, Артем Фадеев, Фёдор Бондарчук, Екатерина Климова, Николай Валуев, Ирина Безрукова, Катерина Шпица, Алексей Макаров, Константин Юшкевич, Инга Стрелкова-Оболдина
Описание фильма:
Быть пандой весело! Но не Мише, который вынужден работать в костюме панды на детских праздниках. Ему тридцать лет, он живет в крохотной однушке на окраине Москвы, и у него нет серьезной работы. Все было так, пока его не позвали на день рождения к сыну олигарха. Артему девять лет, и у него есть тайный план, помочь осуществить который может только Миша. Мальчик и панда отправляются в путешествие через всю страну, то и дело вляпываясь в невероятные ситуации.

Дата мировой премьеры: 22 мая 2014
Дата российской премьеры: 22 мая 2014, «Каропрокат»
Дата украинской премьеры: 22 мая 2014, «TFD Film Ukraine»
Продолжительность: 01:21:16
Качество видео: WEBRip [720p]
Видеокодек: MPEG-4 AVC/H.264
Битрейт видео: ~4238 kb/s
Размер кадра: 1280x680
Аудиокодек: AC3 2.0
Битрейт аудио: 384 kb/s
Сэмпл: Скачать

MediaInfo:

Общее
Уникальный идентификатор : 248828929736770383461894028790787612925 (0xBB32B56C1E0002578F3933C2D05220FD)
Полное имя : D:\Фильмы\Podarok.s.harakterom.2014.O.WEBRip.720p.mkv
Формат : Matroska
Версия формата : Version 4 / Version 2
Размер файла : 2,68 Гбайт
Продолжительность : 1 ч. 21 м.
Общий поток : 4716 Кбит/сек
Дата кодирования : UTC 2014-06-23 06:10:01
Программа кодирования : mkvmerge v7.0.0 ('Where We Going') 64bit built on Jun 9 2014 15:16:27
Библиотека кодирования : libebml v1.3.0 + libmatroska v1.4.1
DURATION : 01:21:16.032000000
NUMBER_OF_FRAMES : 152376
NUMBER_OF_BYTES : 234049536
_STATISTICS_WRITING_APP : mkvmerge v7.0.0 ('Where We Going') 64bit built on Jun 9 2014 15:16:27
_STATISTICS_WRITING_DATE_UTC : 2014-06-23 06:10:01
_STATISTICS_TAGS : BPS DURATION NUMBER_OF_FRAMES NUMBER_OF_BYTES
Attachment : Yes
Видео
Идентификатор : 1
Формат : AVC
Формат/Информация : Advanced Video Codec
Профиль формата : Main@L5.1
Параметр CABAC формата : Да
Параметр ReFrames формата : 1 кадр
Идентификатор кодека : V_MPEG4/ISO/AVC
Продолжительность : 1 ч. 21 м.
Битрейт : 4238 Кбит/сек
Ширина : 1280 пикселей
Высота : 680 пикселей
Соотношение сторон : 1,882
Режим частоты кадров : Постоянный
Частота кадров : 25,000 кадров/сек
Цветовое пространство : YUV
Субдискретизация насыщенности : 4:2:0
Битовая глубина : 8 бит
Тип развёртки : Прогрессивная
Бит/(Пиксели*Кадры) : 0.195
Размер потока : 2,41 Гбайт (90%)
Язык : Russian
Default : Да
Forced : Нет
Аудио
Идентификатор : 2
Формат : AC-3
Формат/Информация : Audio Coding 3
Расширение режима : CM (complete main)
Параметр Endianness формата : Big
Идентификатор кодека : A_AC3
Продолжительность : 1 ч. 21 м.
Вид битрейта : Постоянный
Битрейт : 384 Кбит/сек
Каналы : 2 канала
Расположение каналов : Front: L R
Частота : 48,0 КГц
Битовая глубина : 16 бит
Метод сжатия : С потерями
Размер потока : 223 Мбайт (8%)
Язык : Russian
Default : Да
Forced : Нет
Скриншоты:
Время раздачи: 24/7
(до 5 скачавших)

[Цитировать]



Показать сообщения:    

Текущее время: 09-Дек 18:25

Часовой пояс: UTC + 3


Вы не можете начинать темы
Вы не можете отвечать на сообщения
Вы не можете редактировать свои сообщения
Вы не можете удалять свои сообщения
Вы не можете голосовать в опросах
Вы не можете прикреплять файлы к сообщениям
Вы не можете скачивать файлы

!ВНИМАНИЕ!
Сайт не предоставляет электронные версии произведений, а занимается лишь коллекционированием и каталогизацией ссылок, присылаемых и публикуемых на форуме нашими читателями. Если вы являетесь правообладателем какого-либо представленного материала и не желаете, чтобы ссылка на него находилась в нашем каталоге, свяжитесь с нами, и мы незамедлительно удалим ее. Файлы для обмена на трекере предоставлены пользователями сайта, и администрация не несет ответственности за их содержание. Просьба не заливать файлы, защищенные авторскими правами, а также файлы нелегального содержания!