[ Сегодня идет свободное скачивание без начисления Download ]


Статистика раздачи
Нет
 
   
 
Top  
 
 
-Принцесса Монако / Grace of Monaco (2014) HDTV [1080i] [Line]- Год выпуска: 2014
Производство: Франция, США, Бельгия, Италия, Швейцария
Жанр: Драма, Мелодрама, Биография
Режиссер: Оливье Даан
Продюсер: Араш Амель, Пьер-Анж Ле Пожам, Клаудия Блюмхубер
Актеры: Николь Кидман, Пас Вега, Майло Вентимилья, Тим Рот, Паркер Поузи, Джеральдин Сомервилль, Дерек Джекоби, Фрэнк Ланджелла, Роджер Эштон-Гриффитс, Николас Фэррел
Описание фильма:
Весь Голливуд лежал у ее ног — роскошные виллы, oскаровские приемы и шикарные мужчины, но она выбрала королевский дворец, аристократические балы и благородного принца из маленькой страны недалеко от Франции. Она была королевой Голливуда, но предпочла стать Принцессой Монако.
Перевод: Дублированный [Чистый звук]
Субтитры: Отсутствуют

Дата мировой премьеры: 14 мая 2014
Дата Российской премьеры: 22 мая 2014, «UPI»
Дата релиза на DVD/Blu-Ray: 29 июля 2014, «Lizard Cinema Trade»
Продолжительность: 01:38:47
Качество видео: HDTV [1080i]
Видеокодек: MPEG-4 AVC/H.264
Битрейт видео: ~6651 Kbps
Размер кадра: 1920x1080
Аудиокодек: AC3 5.1
Битрейт аудио: 384 Kbps
Сэмпл: Скачать

MediaInfo:

Общее
Уникальный идентификатор : 220364400378283442354408156211280540631 (0xA5C8A3C5C63D242DAAB48294C5C6F3D7)
Полное имя : D:\Фильмы\Princessa.Monako.2014.HDTV.1080i.mkv
Формат : Matroska
Версия формата : Version 4 / Version 2
Размер файла : 4,86 Гбайт
Продолжительность : 1 ч. 38 м.
Общий поток : 7038 Кбит/сек
Дата кодирования : UTC 2014-06-23 11:03:58
Программа кодирования : mkvmerge v7.0.0 ('Where We Going') 64bit built on Jun 9 2014 15:16:27
Библиотека кодирования : libebml v1.3.0 + libmatroska v1.4.1
DURATION : 01:38:47.136000000
NUMBER_OF_FRAMES : 185223
NUMBER_OF_BYTES : 284502528
_STATISTICS_WRITING_APP : mkvmerge v7.0.0 ('Where We Going') 64bit built on Jun 9 2014 15:16:27
_STATISTICS_WRITING_DATE_UTC : 2014-06-23 11:03:58
_STATISTICS_TAGS : BPS DURATION NUMBER_OF_FRAMES NUMBER_OF_BYTES
Attachment : Yes
Видео
Идентификатор : 1
Формат : AVC
Формат/Информация : Advanced Video Codec
Профиль формата : [email protected]
Параметр CABAC формата : Да
Параметр ReFrames формата : 4 кадра
Идентификатор кодека : V_MPEG4/ISO/AVC
Продолжительность : 1 ч. 38 м.
Битрейт : 6514 Кбит/сек
Ширина : 1920 пикселей
Высота : 1080 пикселей
Соотношение сторон : 16:9
Режим частоты кадров : Постоянный
Частота кадров : 25,000 кадров/сек
Стандарт вещания : Component
Цветовое пространство : YUV
Субдискретизация насыщенности : 4:2:0
Битовая глубина : 8 бит
Тип развёртки : MBAFF
Бит/(Пиксели*Кадры) : 0.126
Размер потока : 4,49 Гбайт (93%)
Язык : English
Default : Да
Forced : Нет
Основные цвета : BT.709
Характеристики трансфера : BT.709
Коэффициенты матрицы : BT.709
Аудио
Идентификатор : 2
Формат : AC-3
Формат/Информация : Audio Coding 3
Расширение режима : CM (complete main)
Параметр Endianness формата : Big
Идентификатор кодека : A_AC3
Продолжительность : 1 ч. 38 м.
Вид битрейта : Постоянный
Битрейт : 384 Кбит/сек
Каналы : 6 каналов
Расположение каналов : Front: L C R, Side: L R, LFE
Частота : 48,0 КГц
Битовая глубина : 16 бит
Метод сжатия : С потерями
Размер потока : 271 Мбайт (5%)
Заголовок : AC3 / 5.1 / 384 Kbps / Line
Язык : Russian
Default : Да
Forced : Нет

Avdump:

File: D:\Фильмы\Princessa.Monako.2014.HDTV.1080i.mkv
Duration: 01:38:47 (5927.16)
Track #1: video
lang: Unknown (1)
codc: V_MPEG4/ISO/AVC -> H264/AVC (22)
reso: 1920x1080 -> 16:9
fram: 25 fps
rate: 6651 kbps (6651.18)
dura: 01:38:47 (5927.12)
size: 4.59 GB (4927793507)
Track #2: audio (AC3 / 5.1 / 384 Kbps / Line)
lang: rus -> Russian (15)
codc: A_AC3 -> AC3 (2)
chan: 6 -> 5.1 Surround
samp: 48000 Hz
rate: 384 kbps (384.05)
dura: 01:38:47 (5926.88)
size: 271.35 MB (284526502)
Sizes: (check sanity)
disk: 4.86 GB (5214110072)
atts: 281.34 KB (288092)
trac: 874.86 MB (917352713) [based on track size]
bitr: 4.85 GB (5212331281) [based on bitrate]
tdif: 4.00 GB (4296469267) 82.40%
bdif: 1.42 MB (1490698) 0.02%
Скриншоты:
Время раздачи: 24/7
(до 5 скачавших)

[Цитировать]



Показать сообщения:    

Текущее время: 04-Дек 19:17

Часовой пояс: UTC + 3


Вы не можете начинать темы
Вы не можете отвечать на сообщения
Вы не можете редактировать свои сообщения
Вы не можете удалять свои сообщения
Вы не можете голосовать в опросах
Вы не можете прикреплять файлы к сообщениям
Вы не можете скачивать файлы

!ВНИМАНИЕ!
Сайт не предоставляет электронные версии произведений, а занимается лишь коллекционированием и каталогизацией ссылок, присылаемых и публикуемых на форуме нашими читателями. Если вы являетесь правообладателем какого-либо представленного материала и не желаете, чтобы ссылка на него находилась в нашем каталоге, свяжитесь с нами, и мы незамедлительно удалим ее. Файлы для обмена на трекере предоставлены пользователями сайта, и администрация не несет ответственности за их содержание. Просьба не заливать файлы, защищенные авторскими правами, а также файлы нелегального содержания!