[ Сегодня идет свободное скачивание без начисления Download ]


Статистика раздачи
Нет
 
   
 
Top  
 
 
-Белый шторм / The White Storm (2013) BDRip- Год выпуска: 2013
Производство: Гонконг
Жанр: Криминал, Драма, Боевик
Описание фильма:
Операция против известного наркобарона в Таиланде меняет судьбы сотрудников отдела по борьбе с наркотиками. Капитан-трудоголик теряет своих людей и блестящую карьеру, верного полицейского бросили, и он пропал без вести, полицейский под прикрытием был спасён, и он решил убежать от своего прошлого. Несколько лет спустя преступление, связанное с наркотиками объединило их для финального противостояния.
Режиссер: Бенни Чан
Актеры: Чинг Ван Лау, Луис Ку, Чинг Ван Лау, Ник Чун, Квон Йуан, Хой-Панг Ло, Лик-Сун Фон, Тинг Йип ЭнДжи, Йонг Хоу
Перевод: Одноголосый закадровый, любительский
Автор перевода: Д. Есарев
Язык субтитров: Английский
Вид субтитров: Вшитые, отключаемые

Дата мировой премьеры: 25 октября 2013
Видео кодек: MPEG-4 AVC/H.264
Видео: 1920х816 (2.35:1), 24.000 fps, ~11.1 Mbps, 0.296 bit/pixel
Аудио №1: 48 kHz, DTS, 6 ch (Front: L C R, Side: L R, LFE), 1509 kbps | Русский, VO
Аудио №2: 48 kHz, DTS, 6 ch (Front: L C R, Side: L R, LFE), 1509 kbps | Китайский
Сэмпл: Скачать

MediaInfo

General
Unique ID                      : 175224218980952975409976456976206548337 (0x83D2F50008068A7B8156C714EF624D71)
Complete name                  : I:\Фильмы\Belyj.Shtorm.2013.BDRip.1080p.mkv
Format                         : Matroska
Format version                 : Version 4 / Version 2
File size                      : 13.3 GiB
Duration                       : 2h 14mn
Overall bit rate               : 14.2 Mbps
Encoded date                   : UTC 2014-03-25 23:51:23
Writing application            : mkvmerge v6.8.0 ('Theme for Great Cities') 64bit built on Mar  2 2014 21:34:26
Writing library                : libebml v1.3.0 + libmatroska v1.4.1
Video
ID                             : 1
Format                         : AVC
Format/Info                    : Advanced Video Codec
Format profile                 : [url=mailto:High@L4.1]High@L4.1[/url]
Format settings, CABAC         : Yes
Format settings, ReFrames      : 5 frames
Codec ID                       : V_MPEG4/ISO/AVC
Duration                       : 2h 14mn
Bit rate                       : 11.1 Mbps
Width                          : 1 920 pixels
Height                         : 816 pixels
Display aspect ratio           : 2.35:1
Frame rate mode                : Constant
Frame rate                     : 24.000 fps
Color space                    : YUV
Chroma subsampling             : 4:2:0
Bit depth                      : 8 bits
Scan type                      : Progressive
Bits/(Pixel*Frame)             : 0.296
Stream size                    : 10.2 GiB (77%)
Writing library                : x264 core 138 r2358 9e941d1
Encoding settings              : cabac=1 / ref=5 / deblock=1:-3:-3 / analyse=0x3:0x113 / me=umh / subme=11 / psy=1 / psy_rd=1.10:0.10 / mixed_ref=1 / me_range=32 / chroma_me=1 / trellis=2 / 8x8dct=1 / cqm=0 / deadzone=21,11 / fast_pskip=0 / chroma_qp_offset=-2 / threads=12 / lookahead_threads=1 / sliced_threads=0 / nr=0 / decimate=1 / interlaced=0 / bluray_compat=0 / constrained_intra=0 / bframes=6 / b_pyramid=2 / b_adapt=2 / b_bias=0 / direct=3 / weightb=1 / open_gop=0 / weightp=2 / keyint=250 / keyint_min=24 / scenecut=40 / intra_refresh=0 / rc=2pass / mbtree=0 / bitrate=11146 / ratetol=2.0 / qcomp=0.70 / qpmin=0 / qpmax=69 / qpstep=4 / cplxblur=20.0 / qblur=0.5 / ip_ratio=1.40 / pb_ratio=1.30 / aq=2:1.00
Language                       : Chinese
Default                        : Yes
Forced                         : No
Audio #1
ID                             : 2
Format                         : DTS
Format/Info                    : Digital Theater Systems
Mode                           : 16
Format settings, Endianness    : Big
Codec ID                       : A_DTS
Duration                       : 2h 14mn
Bit rate mode                  : Constant
Bit rate                       : 1 509 Kbps
Channel(s)                     : 6 channels
Channel positions              : Front: L C R, Side: L R, LFE
Sampling rate                  : 48.0 KHz
Bit depth                      : 16 bits
Compression mode               : Lossy
Stream size                    : 1.41 GiB (11%)
Title                          : Д.Есарев
Language                       : Russian
Default                        : Yes
Forced                         : Yes
Audio #2
ID                             : 3
Format                         : DTS
Format/Info                    : Digital Theater Systems
Mode                           : 16
Format settings, Endianness    : Big
Codec ID                       : A_DTS
Duration                       : 2h 14mn
Bit rate mode                  : Constant
Bit rate                       : 1 509 Kbps
Channel(s)                     : 6 channels
Channel positions              : Front: L C R, Side: L R, LFE
Sampling rate                  : 48.0 KHz
Bit depth                      : 24 bits
Compression mode               : Lossy
Stream size                    : 1.41 GiB (11%)
Language                       : Chinese
Default                        : No
Forced                         : No
Text
ID                             : 4
Format                         : UTF-8
Codec ID                       : S_TEXT/UTF8
Codec ID/Info                  : UTF-8 Plain Text
Language                       : English
Default                        : No
Forced                         : No
Menu
00:00:00.000                   : zh:00:00:00.000
00:11:50.208                   : zh:00:11:50.208
00:20:47.542                   : zh:00:20:47.542
00:32:32.625                   : zh:00:32:32.625
00:41:05.000                   : zh:00:41:05.000
00:55:11.042                   : zh:00:55:11.042
01:05:40.792                   : zh:01:05:40.792
01:16:10.583                   : zh:01:16:10.583
01:26:51.292                   : zh:01:26:51.292
01:36:30.292                   : zh:01:36:30.292
01:46:42.708                   : zh:01:46:42.708
02:00:50.458                   : zh:02:00:50.458
Скриншоты:


Время раздачи: 10:00 - 24:00

[Цитировать]



Показать сообщения:    

Текущее время: 11-Дек 07:13

Часовой пояс: UTC + 3


Вы не можете начинать темы
Вы не можете отвечать на сообщения
Вы не можете редактировать свои сообщения
Вы не можете удалять свои сообщения
Вы не можете голосовать в опросах
Вы не можете прикреплять файлы к сообщениям
Вы не можете скачивать файлы

!ВНИМАНИЕ!
Сайт не предоставляет электронные версии произведений, а занимается лишь коллекционированием и каталогизацией ссылок, присылаемых и публикуемых на форуме нашими читателями. Если вы являетесь правообладателем какого-либо представленного материала и не желаете, чтобы ссылка на него находилась в нашем каталоге, свяжитесь с нами, и мы незамедлительно удалим ее. Файлы для обмена на трекере предоставлены пользователями сайта, и администрация не несет ответственности за их содержание. Просьба не заливать файлы, защищенные авторскими правами, а также файлы нелегального содержания!