[ Сегодня идет свободное скачивание без начисления Download ]


Статистика раздачи
Нет
 
   
 
Top  
 
 
-Меч отчаяния / Hisshiken torisashi (2010) BDRip- Год выпуска: 2010
Производство: Япония | Excellent Film
Жанр: Боевик, история
Описание фильма:
Фильм рассказывает историю периода Эдо. Мастер меча Канэми Сандзаэмон убил Рэнко, любовницу могущественного феодала. За это он получил неожиданно мягкое наказание и вернулся в свой клан всего лишь через пару лет. Но есть подвох: он должен служить телохранителем у господина, которого он предал.
Режиссер: Хидеюки Хираяма
Актеры: Эцуси Тоёкава, Чизуру Икеваки, Кёдзи Киккава, Эдамамэ Цумами, Tenky? Fukuda, Mitsutoshi Got?, Юдай Исияма, Хана Кино, Иттоку Кисибэ, T?ru Kizu
Продолжительность: 01:54:09
Качество видео: BDRip [720p]
Перевод: Любительский (двухголосый, закадровый)
Автор перевода: Shangu, Mara
Язык субтитров: Английский, Русский
Вид субтитров: Вшитые, отключаемые

Дата мировой премьеры: 10 июля 2010
Видео кодек: MPEG-4 AVC/H.264
Видео: 1278x720 (16:9), 23,976 fps, ~8960 kbps avg, 0.406 bit/pixel
Аудио №1: 48 kHz, AC-3, 6 ch, (Front: L C R, Side: L R), LFE ~448 kbps avg | Русский DVO
Аудио №2: 48 kHz, AC-3, 6 ch, (Front: L C R, Side: L R), LFE ~640 kbps avg | Японский
Сэмпл: Скачать

MediaInfo

General
Unique ID                      : 206645680224437246649395384515670659433 (0x9B7682A5CA2F143F9F0935F165815169)
Complete name                  : I:\Фильмы\Mech.otchajanija.2010.BDRip.720p.mkv
Format                         : Matroska
Format version                 : Version 4 / Version 2
File size                      : 8.18 GiB
Duration                       : 1h 54mn
Overall bit rate               : 10.3 Mbps
Movie name                     : Sword of Desperation [720p] [2010] DVO
Encoded date                   : UTC 2014-05-21 11:04:01
Writing application            : mkvmerge v6.9.1 ('Blue Panther') 32bit built on Apr 18 2014 18:15:44
Writing library                : libebml v1.3.0 + libmatroska v1.4.1
Video
ID                             : 1
Format                         : AVC
Format/Info                    : Advanced Video Codec
Format profile                 : [url=mailto:High@L4.1]High@L4.1[/url]
Format settings, CABAC         : Yes
Format settings, ReFrames      : 9 frames
Codec ID                       : V_MPEG4/ISO/AVC
Duration                       : 1h 54mn
Bit rate                       : 8 960 Kbps
Width                          : 1 278 pixels
Height                         : 720 pixels
Display aspect ratio           : 16:9
Original display aspect ratio  : 16:9
Frame rate mode                : Constant
Frame rate                     : 23.976 fps
Color space                    : YUV
Chroma subsampling             : 4:2:0
Bit depth                      : 8 bits
Scan type                      : Progressive
Bits/(Pixel*Frame)             : 0.406
Stream size                    : 7.15 GiB (87%)
Title                          : profile.php?mode=viewprofile&u=22488948
Writing library                : x264 core 130 r2273 b3065e6
Encoding settings              : cabac=1 / ref=9 / deblock=1:-3:-3 / analyse=0x3:0x113 / me=tesa / subme=10 / psy=1 / psy_rd=1.10:0.00 / mixed_ref=1 / me_range=16 / chroma_me=1 / trellis=2 / 8x8dct=1 / cqm=0 / deadzone=21,11 / fast_pskip=0 / chroma_qp_offset=-2 / threads=12 / lookahead_threads=3 / sliced_threads=0 / nr=0 / decimate=0 / interlaced=0 / bluray_compat=0 / constrained_intra=0 / bframes=11 / b_pyramid=2 / b_adapt=2 / b_bias=0 / direct=3 / weightb=1 / open_gop=0 / weightp=2 / keyint=250 / keyint_min=23 / scenecut=40 / intra_refresh=0 / rc=crf / mbtree=0 / crf=16.5 / qcomp=0.70 / qpmin=0 / qpmax=69 / qpstep=4 / ip_ratio=1.30 / pb_ratio=1.20 / aq=1:0.80 / zones=157380,164231,crf=30
Language                       : English
Default                        : Yes
Forced                         : No
Audio #1
ID                             : 2
Format                         : AC-3
Format/Info                    : Audio Coding 3
Mode extension                 : CM (complete main)
Format settings, Endianness    : Big
Codec ID                       : A_AC3
Duration                       : 1h 54mn
Bit rate mode                  : Constant
Bit rate                       : 448 Kbps
Channel(s)                     : 6 channels
Channel positions              : Front: L C R, Side: L R, LFE
Sampling rate                  : 48.0 KHz
Bit depth                      : 16 bits
Compression mode               : Lossy
Stream size                    : 366 MiB (4%)
Title                          : DVO [Shangu, Mara]
Language                       : Russian
Default                        : Yes
Forced                         : No
Audio #2
ID                             : 3
Format                         : AC-3
Format/Info                    : Audio Coding 3
Mode extension                 : CM (complete main)
Format settings, Endianness    : Big
Codec ID                       : A_AC3
Duration                       : 1h 54mn
Bit rate mode                  : Constant
Bit rate                       : 640 Kbps
Channel(s)                     : 6 channels
Channel positions              : Front: L C R, Side: L R, LFE
Sampling rate                  : 48.0 KHz
Bit depth                      : 16 bits
Compression mode               : Lossy
Stream size                    : 523 MiB (6%)
Language                       : Japanese
Default                        : No
Forced                         : No
Text #1
ID                             : 4
Format                         : UTF-8
Codec ID                       : S_TEXT/UTF8
Codec ID/Info                  : UTF-8 Plain Text
Language                       : English
Default                        : No
Forced                         : No
Text #2
ID                             : 5
Format                         : UTF-8
Codec ID                       : S_TEXT/UTF8
Codec ID/Info                  : UTF-8 Plain Text
Title                          : [Tora Asakura]
Language                       : Russian
Default                        : No
Forced                         : No
Menu
00:00:00.000                   : en:00:00:00.000
00:08:15.787                   : en:00:08:15.787
00:19:03.601                   : en:00:19:03.601
00:30:29.911                   : en:00:30:29.911
00:39:58.646                   : en:00:39:58.646
00:45:14.795                   : en:00:45:14.795
00:56:02.985                   : en:00:56:02.985
01:05:04.067                   : en:01:05:04.067
01:13:45.630                   : en:01:13:45.630
01:24:52.504                   : en:01:24:52.504
01:28:52.035                   : en:01:28:52.035
01:49:25.392                   : en:01:49:25.392
Скриншоты:

Время раздачи: 10:00 - 24:00

[Цитировать]



Показать сообщения:    

Текущее время: 10-Дек 11:56

Часовой пояс: UTC + 3


Вы не можете начинать темы
Вы не можете отвечать на сообщения
Вы не можете редактировать свои сообщения
Вы не можете удалять свои сообщения
Вы не можете голосовать в опросах
Вы не можете прикреплять файлы к сообщениям
Вы не можете скачивать файлы

!ВНИМАНИЕ!
Сайт не предоставляет электронные версии произведений, а занимается лишь коллекционированием и каталогизацией ссылок, присылаемых и публикуемых на форуме нашими читателями. Если вы являетесь правообладателем какого-либо представленного материала и не желаете, чтобы ссылка на него находилась в нашем каталоге, свяжитесь с нами, и мы незамедлительно удалим ее. Файлы для обмена на трекере предоставлены пользователями сайта, и администрация не несет ответственности за их содержание. Просьба не заливать файлы, защищенные авторскими правами, а также файлы нелегального содержания!