[ Сегодня идет свободное скачивание без начисления Download ]


Статистика раздачи
Нет
 
   
 
Top  
 
 
-Этот демон внутри / Mo jing (2014) BDRip- Год выпуска: 2014
Жанр: Боевик, Криминал
Описание фильма:
Верный своему долгу полицейский невольно спасает жизнь лидеру криминальной банды. Страдая чувством вины, он становится одержим идеей сокрушить синдикат человека, которого он спас.
Режиссер: Данте Лам
Актеры: Дэниэл Ву, Ник Чун, Лью Кай Чи, Ка Ва Лам, Энди Он, Квок-Лун Ли, Стефен Ау, Куан-Чун Чи, Сингх Хартихан Битто
Продолжительность: 01:51:16
Качество видео: BDRip [720p]
Перевод: Любительский (двухголосый, закадровый)
Автор перевода: DeadSno & den904
Язык субтитров: Английский
Вид субтитров: Вшитые, отключаемые

Дата мировой премьеры: 8 февраля 2014
Видео кодек: MPEG-4 AVC/H.264
Видео: 1280х544 (2.35:1), 24.000 fps, ~5500 kbps avg, 0.329 bit/pixel
Аудио №1: 48 kHz, AC-3, 2 ch, (Front: L, R), ~192 kbps avg | Русский DVO
Аудио №2: 48 kHz, DTS, 6 ch, (Front: L C R, Side: L R, LFE), ~1509 kbps avg | Китайский оригинал
Сэмпл: Скачать

MediaInfo

General
Unique ID                      : 205102409610362528127363883247870904874 (0x9A4D498821C1AA8FBA25EB50BFAB8A2A)
Complete name                  : I:\Фильмы\Etot.demon.vnutri.2014.BDRip.720p.mkv
Format                         : Matroska
Format version                 : Version 4 / Version 2
File size                      : 5.60 GiB
Duration                       : 1h 51mn
Overall bit rate               : 7 200 Kbps
Encoded date                   : UTC 2014-06-15 15:13:14
Writing application            : mkvmerge v7.0.0 ('Where We Going') 64bit built on Jun  9 2014 15:16:27
Writing library                : libebml v1.3.0 + libmatroska v1.4.1
DURATION                       : 01:51:16.502000000
NUMBER_OF_FRAMES               : 625922
NUMBER_OF_BYTES                : 1259355064
_STATISTICS_WRITING_APP        : mkvmerge v7.0.0 ('Where We Going') 32bit built on Jun  9 2014 15:08:34
_STATISTICS_WRITING_DATE_UTC   : 2014-06-12 13:07:31
_STATISTICS_TAGS               : BPS DURATION NUMBER_OF_FRAMES NUMBER_OF_BYTES
Video
ID                             : 1
Format                         : AVC
Format/Info                    : Advanced Video Codec
Format profile                 : [url=mailto:High@L4.1]High@L4.1[/url]
Format settings, CABAC         : Yes
Format settings, ReFrames      : 12 frames
Codec ID                       : V_MPEG4/ISO/AVC
Duration                       : 1h 51mn
Bit rate                       : 5 500 Kbps
Width                          : 1 280 pixels
Height                         : 544 pixels
Display aspect ratio           : 2.35:1
Frame rate mode                : Constant
Frame rate                     : 24.000 fps
Color space                    : YUV
Chroma subsampling             : 4:2:0
Bit depth                      : 8 bits
Scan type                      : Progressive
Bits/(Pixel*Frame)             : 0.329
Stream size                    : 4.16 GiB (74%)
Writing library                : x264 core 142 r2409+42 04be48a tMod [8-bit@4:2:0 X86_64]
Encoding settings              : cabac=1 / ref=12 / deblock=1:-3:-3 / analyse=0x3:0x113 / me=tesa / subme=10 / psy=1 / fade_compensate=0.00 / psy_rd=1.00:0.00 / mixed_ref=1 / me_range=24 / chroma_me=1 / trellis=2 / 8x8dct=1 / cqm=0 / deadzone=21,11 / fast_pskip=0 / chroma_qp_offset=-4 / threads=12 / lookahead_threads=2 / sliced_threads=0 / nr=0 / decimate=0 / interlaced=0 / bluray_compat=0 / constrained_intra=0 / fgo=0 / bframes=8 / b_pyramid=2 / b_adapt=2 / b_bias=0 / direct=3 / weightb=1 / open_gop=0 / weightp=2 / keyint=250 / keyint_min=24 / scenecut=40 / intra_refresh=0 / rc=2pass / mbtree=0 / bitrate=5500 / ratetol=1.0 / qcomp=0.80 / qpmin=0:0:0 / qpmax=69:69:69 / qpstep=4 / cplxblur=20.0 / qblur=0.5 / ip_ratio=1.20 / pb_ratio=1.20 / aq=2:0.90 / aq-sensitivity=10.00 / aq-factor=1.00:1.00:1.00 / aq2=0 / aq3=0
Language                       : English
Default                        : Yes
Forced                         : No
Audio #1
ID                             : 2
Format                         : AC-3
Format/Info                    : Audio Coding 3
Mode extension                 : CM (complete main)
Format settings, Endianness    : Big
Codec ID                       : A_AC3
Duration                       : 1h 51mn
Bit rate mode                  : Constant
Bit rate                       : 192 Kbps
Channel(s)                     : 2 channels
Channel positions              : Front: L R
Sampling rate                  : 48.0 KHz
Bit depth                      : 16 bits
Compression mode               : Lossy
Stream size                    : 153 MiB (3%)
Title                          : Снежиночка и Влад
Language                       : Russian
Default                        : Yes
Forced                         : Yes
Audio #2
ID                             : 3
Format                         : DTS
Format/Info                    : Digital Theater Systems
Mode                           : 16
Format settings, Endianness    : Big
Codec ID                       : A_DTS
Duration                       : 1h 51mn
Bit rate mode                  : Constant
Bit rate                       : 1 509 Kbps
Channel(s)                     : 6 channels
Channel positions              : Front: L C R, Side: L R, LFE
Sampling rate                  : 48.0 KHz
Bit depth                      : 24 bits
Compression mode               : Lossy
Stream size                    : 1.17 GiB (21%)
Language                       : Chinese
Default                        : No
Forced                         : No
Text
ID                             : 4
Format                         : UTF-8
Codec ID                       : S_TEXT/UTF8
Codec ID/Info                  : UTF-8 Plain Text
Language                       : English
Default                        : No
Forced                         : No
Menu
00:00:00.000                   : en:00:00:00.000
00:11:59.333                   : en:00:11:59.333
00:19:43.375                   : en:00:19:43.375
00:27:09.875                   : en:00:27:09.875
00:35:46.458                   : en:00:35:46.458
00:50:59.125                   : en:00:50:59.125
00:59:53.250                   : en:00:59:53.250
01:05:53.375                   : en:01:05:53.375
01:15:46.833                   : en:01:15:46.833
01:24:20.083                   : en:01:24:20.083
01:35:38.000                   : en:01:35:38.000
01:47:42.333                   : en:01:47:42.333
Скриншоты:


Время раздачи: 10:00 - 24:00

[Цитировать]



Показать сообщения:    

Текущее время: 08-Дек 12:46

Часовой пояс: UTC + 3


Вы не можете начинать темы
Вы не можете отвечать на сообщения
Вы не можете редактировать свои сообщения
Вы не можете удалять свои сообщения
Вы не можете голосовать в опросах
Вы не можете прикреплять файлы к сообщениям
Вы не можете скачивать файлы

!ВНИМАНИЕ!
Сайт не предоставляет электронные версии произведений, а занимается лишь коллекционированием и каталогизацией ссылок, присылаемых и публикуемых на форуме нашими читателями. Если вы являетесь правообладателем какого-либо представленного материала и не желаете, чтобы ссылка на него находилась в нашем каталоге, свяжитесь с нами, и мы незамедлительно удалим ее. Файлы для обмена на трекере предоставлены пользователями сайта, и администрация не несет ответственности за их содержание. Просьба не заливать файлы, защищенные авторскими правами, а также файлы нелегального содержания!