[ Сегодня идет свободное скачивание без начисления Download ]


Статистика раздачи
Нет
 
   
 
Top  
 
 
-Трупное окоченение / Geung si (2013) BDRip
« An eerie and chilling, contemporary, action/special effects laden homage to the classic Chinese vampire movies of the 1980's »
- Год выпуска: 2013
Производство: Гонконг | Kudos Films
Жанр: Триллер, Ужасы, Драма
Описание фильма:
История о бывшем актере, игравшем охотника на вампиров, который теперь переживает не лучшие времена, он расстался с женой, а его сын не испытывает к нему теплых чувств. Но вскоре его жизнь сильно изменится…
Режиссер: Джуно Мак
Актеры: Энтони Чан, Чин Сиу Хоу, Кара Хуи, Хой-Панг Ло, Ричард Н, Хи Чинг Пав
Продолжительность: 01:40:50
Качество видео: BDRip [720p]
Перевод: Любительский (двухголосый, закадровый)
Автор перевода: den904, DeadSno
Язык субтитров: Английский, Русский
Вид субтитров: Вшитые, отключаемые

Дата мировой премьеры: 30 августа 2013
Видео кодек: MPEG-4 AVC/H.264
Видео: 1280x546 (2,35:1), 24.000 fps, 5000 Кbps, 0.298 bit/pixel
Аудио №1: 48 kHz, AC-3, 6 ch, (Front: L C R, Side: L R, LFE) ~640 kbps avg | Русский DVO
Аудио №2: 48 kHz, AC-3, 6 ch, (Front: L C R, Side: L R, LFE) ~640 kbps avg | Оригинал китайский
Сэмпл: Скачать

MediaInfo

General
Unique ID                      : 251567445323922102965884391823601479731 (0xBD4220AA47222EC78E38F27009BAB033)
Complete name                  : I:\Фильмы\Trupnoe.okochenenie.2013.BDRip.720p.mkv
Format                         : Matroska
Format version                 : Version 4 / Version 2
File size                      : 4.42 GiB
Duration                       : 1h 40mn
Overall bit rate               : 6 278 Kbps
Movie name                     : Rigor Mortis [720p] [2013] DVO
Encoded date                   : UTC 2014-06-04 07:21:17
Writing application            : mkvmerge v6.9.1 ('Blue Panther') 32bit built on Apr 18 2014 18:15:44
Writing library                : libebml v1.3.0 + libmatroska v1.4.1
Video
ID                             : 1
Format                         : AVC
Format/Info                    : Advanced Video Codec
Format profile                 : [url=mailto:[email protected]][email protected][/url]
Format settings, CABAC         : Yes
Format settings, ReFrames      : 11 frames
Codec ID                       : V_MPEG4/ISO/AVC
Duration                       : 1h 40mn
Bit rate                       : 5 000 Kbps
Width                          : 1 280 pixels
Height                         : 546 pixels
Display aspect ratio           : 2.35:1
Frame rate mode                : Constant
Frame rate                     : 24.000 fps
Color space                    : YUV
Chroma subsampling             : 4:2:0
Bit depth                      : 8 bits
Scan type                      : Progressive
Bits/(Pixel*Frame)             : 0.298
Stream size                    : 3.43 GiB (78%)
Title                          : profile.php?mode=viewprofile&u=22488948
Writing library                : x264 core 133 r2334 a3ac64b
Encoding settings              : cabac=1 / ref=11 / deblock=1:-3:-3 / analyse=0x3:0x113 / me=tesa / subme=11 / psy=1 / psy_rd=1.00:0.00 / mixed_ref=1 / me_range=24 / chroma_me=1 / trellis=2 / 8x8dct=1 / cqm=0 / deadzone=21,11 / fast_pskip=0 / chroma_qp_offset=-4 / threads=12 / lookahead_threads=2 / sliced_threads=0 / nr=0 / decimate=0 / interlaced=0 / bluray_compat=0 / constrained_intra=0 / bframes=8 / b_pyramid=2 / b_adapt=2 / b_bias=0 / direct=3 / weightb=1 / open_gop=0 / weightp=2 / keyint=250 / keyint_min=24 / scenecut=40 / intra_refresh=0 / rc=2pass / mbtree=0 / bitrate=5000 / ratetol=1.0 / qcomp=0.70 / qpmin=0 / qpmax=69 / qpstep=4 / cplxblur=20.0 / qblur=0.5 / ip_ratio=1.20 / pb_ratio=1.30 / aq=1:0.85
Language                       : Chinese
Default                        : Yes
Forced                         : No
Audio #1
ID                             : 2
Format                         : AC-3
Format/Info                    : Audio Coding 3
Mode extension                 : CM (complete main)
Format settings, Endianness    : Big
Codec ID                       : A_AC3
Duration                       : 1h 40mn
Bit rate mode                  : Constant
Bit rate                       : 640 Kbps
Channel(s)                     : 6 channels
Channel positions              : Front: L C R, Side: L R, LFE
Sampling rate                  : 48.0 KHz
Bit depth                      : 16 bits
Compression mode               : Lossy
Stream size                    : 462 MiB (10%)
Title                          : DVO [den904, DeadSno]
Language                       : Russian
Default                        : Yes
Forced                         : No
Audio #2
ID                             : 3
Format                         : AC-3
Format/Info                    : Audio Coding 3
Mode extension                 : CM (complete main)
Format settings, Endianness    : Big
Codec ID                       : A_AC3
Duration                       : 1h 40mn
Bit rate mode                  : Constant
Bit rate                       : 640 Kbps
Channel(s)                     : 6 channels
Channel positions              : Front: L C R, Side: L R, LFE
Sampling rate                  : 48.0 KHz
Bit depth                      : 16 bits
Compression mode               : Lossy
Stream size                    : 462 MiB (10%)
Title                          : Cantonese
Language                       : Chinese
Default                        : No
Forced                         : No
Text #1
ID                             : 4
Format                         : UTF-8
Codec ID                       : S_TEXT/UTF8
Codec ID/Info                  : UTF-8 Plain Text
Language                       : English
Default                        : No
Forced                         : No
Text #2
ID                             : 5
Format                         : UTF-8
Codec ID                       : S_TEXT/UTF8
Codec ID/Info                  : UTF-8 Plain Text
Title                          : [kami aka 'Виталий Королёв']
Language                       : Russian
Default                        : No
Forced                         : No
Menu
00:00:00.000                   : en:00:00:00.000
00:06:52.708                   : en:00:06:52.708
00:14:30.500                   : en:00:14:30.500
00:24:36.667                   : en:00:24:36.667
00:32:30.083                   : en:00:32:30.083
00:40:02.708                   : en:00:40:02.708
00:50:08.292                   : en:00:50:08.292
00:58:48.667                   : en:00:58:48.667
01:06:44.458                   : en:01:06:44.458
01:14:48.083                   : en:01:14:48.083
01:24:14.625                   : en:01:24:14.625
01:34:55.958                   : en:01:34:55.958
Скриншоты:


Время раздачи: 10:00 - 24:00

[Цитировать]



Показать сообщения:    

Текущее время: 06-Дек 20:56

Часовой пояс: UTC + 3


Вы не можете начинать темы
Вы не можете отвечать на сообщения
Вы не можете редактировать свои сообщения
Вы не можете удалять свои сообщения
Вы не можете голосовать в опросах
Вы не можете прикреплять файлы к сообщениям
Вы не можете скачивать файлы

!ВНИМАНИЕ!
Сайт не предоставляет электронные версии произведений, а занимается лишь коллекционированием и каталогизацией ссылок, присылаемых и публикуемых на форуме нашими читателями. Если вы являетесь правообладателем какого-либо представленного материала и не желаете, чтобы ссылка на него находилась в нашем каталоге, свяжитесь с нами, и мы незамедлительно удалим ее. Файлы для обмена на трекере предоставлены пользователями сайта, и администрация не несет ответственности за их содержание. Просьба не заливать файлы, защищенные авторскими правами, а также файлы нелегального содержания!