[ Сегодня идет свободное скачивание без начисления Download ]


Статистика раздачи
Нет
 
   
 
Top  
 
 
-Когда гаснет свет / Te Zhong Jiu Yuan Ying Xiong (2014) BDRip- Год выпуска: 2014
Производство: Гонконг | Emperor Motion Pictures, Media Asia Films Ltd.
Жанр: Боевик, Драма
Описание фильма:
Фильм повествует о непростой, тяжелой и опасной работе пожарных.
Режиссер: Чи-Кин Квок
Актеры: Николас Тсе, Шон Юе, Саймон Ям, Цзюнь Ху, Бин Бай, Джеки Чан, Кенни Кван, Вэй Кеунг Лау, Лью Кай Чи, Энди Он
Продолжительность: 01:55:39
Качество видео: BDRip [720p]
Перевод: Авторский (одноголосый)
Автор перевода: Вадим Белов
Язык субтитров: Английский
Вид субтитров: Вшитые, отключаемые

Дата мировой премьеры: 2 января 2014
Видео кодек: MPEG-4 AVC/H.264
Видео: 1280x538 (2.40:1), 24.000 fps, ~8622 kbps avg, 0.522 bit/pixel
Аудио №1: 48 kHz, DTS, 6 ch, (Front: L C R, Side: L R, LFE) ~1509 kbps avg | Русский AVO
Аудио №2: 48 kHz, AC-3, 6 ch, (Front: L C R, Side: L R, LFE) ~640 kbps avg | Оригинал (китайский)
Сэмпл: Скачать

MediaInfo

General
Unique ID                      : 193039007007439402672100315897002907558 (0x9139F5DCF941ED46B2F6153D0AEED7A6)
Complete name                  : I:\Фильмы\Kogda.gasnet.svet.2014.BDRip.720p.mkv
Format                         : Matroska
Format version                 : Version 2
File size                      : 8.87 GiB
Duration                       : 1h 55mn
Overall bit rate               : 11.0 Mbps
Movie name                     : As.the.Light.Goes.Out.2014.720p
Encoded date                   : UTC 2014-06-21 14:06:00
Writing application            : mkvmerge v5.2.1 ('A Far Off Place') built on Jan  2 2012 23:21:10
Writing library                : libebml v1.2.3 + libmatroska v1.3.0
Video
ID                             : 1
Format                         : AVC
Format/Info                    : Advanced Video Codec
Format profile                 : [url=mailto:High@L4.1]High@L4.1[/url]
Format settings, CABAC         : Yes
Format settings, ReFrames      : 12 frames
Codec ID                       : V_MPEG4/ISO/AVC
Duration                       : 1h 55mn
Bit rate                       : 8 622 Kbps
Width                          : 1 280 pixels
Height                         : 538 pixels
Display aspect ratio           : 2.40:1
Frame rate mode                : Constant
Frame rate                     : 24.000 fps
Color space                    : YUV
Chroma subsampling             : 4:2:0
Bit depth                      : 8 bits
Scan type                      : Progressive
Bits/(Pixel*Frame)             : 0.522
Stream size                    : 6.96 GiB (78%)
Writing library                : x264 core 142 r2431kMod ac76440
Encoding settings              : cabac=1 / ref=12 / deblock=1:-3:-3 / analyse=0x3:0x133 / me=umh / subme=11 / psy=1 / fade_compensate=0.00 / psy_rd=1.02:0.00 / mixed_ref=1 / me_range=32 / chroma_me=1 / trellis=2 / 8x8dct=1 / cqm=0 / deadzone=21,11 / fast_pskip=0 / chroma_qp_offset=-2 / threads=24 / lookahead_threads=4 / sliced_threads=0 / nr=0 / decimate=0 / interlaced=0 / bluray_compat=0 / constrained_intra=0 / fgo=0 / bframes=12 / b_pyramid=2 / b_adapt=2 / b_bias=0 / direct=3 / weightb=1 / open_gop=0 / weightp=2 / keyint=250 / keyint_min=24 / scenecut=40 / intra_refresh=0 / rc=crf / mbtree=0 / crf=15.5000 / qcomp=0.62 / qpmin=0 / qpmax=69 / qpstep=4 / ip_ratio=1.40 / pb_ratio=1.15 / aq=1:0.70
Language                       : Chinese
Default                        : Yes
Forced                         : No
Audio #1
ID                             : 2
Format                         : DTS
Format/Info                    : Digital Theater Systems
Mode                           : 16
Format settings, Endianness    : Big
Codec ID                       : A_DTS
Duration                       : 1h 55mn
Bit rate mode                  : Constant
Bit rate                       : 1 509 Kbps
Channel(s)                     : 6 channels
Channel positions              : Front: L C R, Side: L R, LFE
Sampling rate                  : 48.0 KHz
Bit depth                      : 16 bits
Compression mode               : Lossy
Stream size                    : 1.22 GiB (14%)
Title                          : DTS 5.1 1536 Kbps [В.Белов]
Language                       : Russian
Default                        : Yes
Forced                         : No
Audio #2
ID                             : 3
Format                         : AC-3
Format/Info                    : Audio Coding 3
Mode extension                 : CM (complete main)
Format settings, Endianness    : Big
Codec ID                       : A_AC3
Duration                       : 1h 55mn
Bit rate mode                  : Constant
Bit rate                       : 640 Kbps
Channel(s)                     : 6 channels
Channel positions              : Front: L C R, Side: L R, LFE
Sampling rate                  : 48.0 KHz
Bit depth                      : 16 bits
Compression mode               : Lossy
Stream size                    : 529 MiB (6%)
Title                          : AC3 5.1 640 Kbps [Оригинал]
Language                       : Chinese
Default                        : No
Forced                         : No
Text #1
ID                             : 4
Format                         : UTF-8
Codec ID                       : S_TEXT/UTF8
Codec ID/Info                  : UTF-8 Plain Text
Title                          : ENG-SRT
Language                       : English
Default                        : Yes
Forced                         : No
Text #2
ID                             : 5
Format                         : PGS
Muxing mode                    : zlib
Codec ID                       : S_HDMV/PGS
Codec ID/Info                  : The same subtitle format used on BDs/HD-DVDs
Title                          : ENG-SUP
Language                       : English
Default                        : No
Forced                         : No
Menu
00:00:00.000                   : en:Chapter 01
00:08:33.625                   : en:Chapter 02
00:18:45.958                   : en:Chapter 03
00:30:44.875                   : en:Chapter 04
00:39:30.875                   : en:Chapter 05
00:49:34.125                   : en:Chapter 06
00:59:38.042                   : en:Chapter 07
01:08:02.292                   : en:Chapter 08
01:22:54.958                   : en:Chapter 09
01:33:57.208                   : en:Chapter 10
01:44:46.708                   : en:Chapter 11
01:51:48.833                   : en:Chapter 12
Скриншоты:


Время раздачи: 10:00 - 24:00

[Цитировать]



Показать сообщения:    

Текущее время: 09-Дек 22:27

Часовой пояс: UTC + 3


Вы не можете начинать темы
Вы не можете отвечать на сообщения
Вы не можете редактировать свои сообщения
Вы не можете удалять свои сообщения
Вы не можете голосовать в опросах
Вы не можете прикреплять файлы к сообщениям
Вы не можете скачивать файлы

!ВНИМАНИЕ!
Сайт не предоставляет электронные версии произведений, а занимается лишь коллекционированием и каталогизацией ссылок, присылаемых и публикуемых на форуме нашими читателями. Если вы являетесь правообладателем какого-либо представленного материала и не желаете, чтобы ссылка на него находилась в нашем каталоге, свяжитесь с нами, и мы незамедлительно удалим ее. Файлы для обмена на трекере предоставлены пользователями сайта, и администрация не несет ответственности за их содержание. Просьба не заливать файлы, защищенные авторскими правами, а также файлы нелегального содержания!