[ Сегодня идет свободное скачивание без начисления Download ]


Статистика раздачи
Нет
 
   
 
Top  
 
 
-Голгофа / Calvary (2014) BDRip-«Убить священника в воскресенье - хорошая идея»- Год выпуска: 2014
Производство: Ирландия, Великобритания, Irish Film Board, Lipsync Productions, Octagon Films
Жанр: Драма, Комедия
Описание фильма:
Давно не было такой недельки у отца Джеймса: исповедь, начинающая со слов «я собираюсь вас убить», поджог церкви и драка в пабе. Быть священником и направлять свою паству непросто. Без чувства юмора, иронии и прощения не обойтись.
Режиссер: Джон Майкл МакДона
Продюсер: Крис Кларк, Флора Фернандес-Маренго, Джеймс Флинн
Актеры: Брендан Глисон, Крис О’Дауд, Келли Райлли, Эйден Гиллен, Дилан Моран, Исаак Де Банколе, М. Эммет Уолш, Мари-Жозе Кроз, Донал Глисон, Дэвид Уилмот
Перевод: Многоголосый закадровый, профессиональный
Субтитры: Вшитые отключаемые
Язык субтитров: Русский

Дата мировой премьеры: 19 января 2014
Дата российской премьеры: 17 апреля 2014, «Премиум Фильм»
Дата выхода DVD релиза: 26 июня 2014, «CP Дистрибуция»
Продолжительность: 01:41:30
Качество видео: BDRip
Видеокодек: MPEG-4 AVC/H.264
Битрейт видео: ~4242 Кбит/с
Размер кадра: 1280x544
Аудио #1: 48 kHz, AC3 Dolby Digital, 3/2 (L,C,R,l,r) + LFE ch, ~640 kbps (Русский) / Профка, Лицензия
Аудио #2: 48 kHz, AC3 Dolby Digital, 3/2 (L,C,R,l,r) + LFE ch, ~640 kbps (Английский) / Оригинал
Сэмпл: Скачать

Награды

Берлинский кинофестиваль, 2014 год
Приз экуменического (христианского) жюри (программа «Панорама»)

MI

Общее
Уникальный идентификатор : 205562691856651045659289820582775493339 (0x9AA5EF32D7E1E2BFA3A5D987C87A12DB)
Полное имя : I:Голгофа (2014)\Calvary.2014.BDRip.720p.mkv
Формат : Matroska
Версия формата : Version 2
Размер файла : 3,99 Гбайт
Продолжительность : 1 ч. 41 м.
Общий поток : 5634 Кбит/сек
Название фильма : ~V~
Дата кодирования : UTC 2014-06-25 03:20:50
Программа кодирования : mkvmerge v6.5.0 ('Isn't she lovely') built on Oct 20 2013 12:50:05
Библиотека кодирования : libebml v1.3.0 + libmatroska v1.4.1
Видео
Идентификатор : 1
Формат : AVC
Формат/Информация : Advanced Video Codec
Профиль формата : High@L4.1
Параметр CABAC формата : Да
Параметр ReFrames формата : 11 кадров
Идентификатор кодека : V_MPEG4/ISO/AVC
Продолжительность : 1 ч. 41 м.
Битрейт : 4242 Кбит/сек
Ширина : 1280 пикселей
Высота : 544 пикселя
Соотношение сторон : 2,35:1
Режим частоты кадров : Постоянный
Частота кадров : 24,000 кадра/сек
Цветовое пространство : YUV
Субдискретизация насыщенности : 4:2:0
Битовая глубина : 8 бит
Тип развёртки : Прогрессивная
Бит/(Пиксели*Кадры) : 0.254
Размер потока : 3,01 Гбайт (75%)
Заголовок : Calvary.2014.720p.BluRay.Rus.Eng.HDClub
Библиотека кодирования : x264 core 142 r2431+42 c69a006 tMod [8-bit@all X86_64]
Настройки программы : cabac=1 / ref=11 / deblock=1:-3:-3 / analyse=0x3:0x133 / me=umh / subme=11 / psy=1 / fade_compensate=0.00 / psy_rd=1.00:0.00 / mixed_ref=1 / me_range=48 / chroma_me=1 / trellis=2 / 8x8dct=1 / cqm=0 / deadzone=21,11 / fast_pskip=0 / chroma_qp_offset=-2 / threads=12 / lookahead_threads=2 / sliced_threads=0 / nr=0 / decimate=1 / interlaced=0 / bluray_compat=0 / constrained_intra=0 / fgo=0 / bframes=8 / b_pyramid=2 / b_adapt=2 / b_bias=0 / direct=1 / weightb=1 / open_gop=0 / weightp=2 / keyint=240 / keyint_min=24 / scenecut=40 / intra_refresh=0 / rc_lookahead=60 / rc=crf / mbtree=0 / crf=16.6000 / qcomp=0.70 / qpmin=0:0:0 / qpmax=69:69:69 / qpstep=4 / vbv_maxrate=50000 / vbv_bufsize=62500 / crf_max=0.0 / nal_hrd=none / filler=0 / ip_ratio=1.25 / pb_ratio=1.15 / aq=4:0.70 / aq-sensitivity=10.00 / aq-factor=1.00:1.00:1.00 / aq2=0 / aq3=0
Язык : English
Default : Да
Forced : Нет
Аудио #1
Идентификатор : 2
Формат : AC-3
Формат/Информация : Audio Coding 3
Расширение режима : CM (complete main)
Параметр Endianness формата : Big
Идентификатор кодека : A_AC3
Продолжительность : 1 ч. 41 м.
Вид битрейта : Постоянный
Битрейт : 640 Кбит/сек
Каналы : 6 каналов
Расположение каналов : Front: L C R, Side: L R, LFE
Частота : 48,0 КГц
Битовая глубина : 16 бит
Метод сжатия : С потерями
Размер потока : 465 Мбайт (11%)
Язык : Russian
Default : Да
Forced : Да
Аудио #2
Идентификатор : 3
Формат : AC-3
Формат/Информация : Audio Coding 3
Расширение режима : CM (complete main)
Параметр Endianness формата : Big
Идентификатор кодека : A_AC3
Продолжительность : 1 ч. 41 м.
Вид битрейта : Постоянный
Битрейт : 640 Кбит/сек
Каналы : 6 каналов
Расположение каналов : Front: L C R, Side: L R, LFE
Частота : 48,0 КГц
Битовая глубина : 16 бит
Метод сжатия : С потерями
Размер потока : 465 Мбайт (11%)
Язык : English
Default : Нет
Forced : Нет
Текст
Идентификатор : 4
Формат : UTF-8
Идентификатор кодека : S_TEXT/UTF8
Идентификатор кодека/Информация : UTF-8 Plain Text
Заголовок : full
Язык : Russian
Default : Нет
Forced : Нет
Меню
00:00:00.000 : en:Chapter 1
00:09:51.125 : en:Chapter 2
00:19:20.166 : en:Chapter 3
00:28:08.208 : en:Chapter 4
00:38:09.625 : en:Chapter 5
00:47:33.041 : en:Chapter 6
00:58:09.500 : en:Chapter 7
01:04:43.291 : en:Chapter 8
01:10:57.000 : en:Chapter 9
01:19:39.166 : en:Chapter 10
01:24:27.333 : en:Chapter 11
01:29:28.500 : en:Chapter 12
01:36:53.166 : en:Chapter 13
Скриншоты:


Время раздачи: 24/7 - До 5 скачавших, далее по возможности

[Цитировать]



Показать сообщения:    

Текущее время: 10-Дек 00:24

Часовой пояс: UTC + 3


Вы не можете начинать темы
Вы не можете отвечать на сообщения
Вы не можете редактировать свои сообщения
Вы не можете удалять свои сообщения
Вы не можете голосовать в опросах
Вы не можете прикреплять файлы к сообщениям
Вы не можете скачивать файлы

!ВНИМАНИЕ!
Сайт не предоставляет электронные версии произведений, а занимается лишь коллекционированием и каталогизацией ссылок, присылаемых и публикуемых на форуме нашими читателями. Если вы являетесь правообладателем какого-либо представленного материала и не желаете, чтобы ссылка на него находилась в нашем каталоге, свяжитесь с нами, и мы незамедлительно удалим ее. Файлы для обмена на трекере предоставлены пользователями сайта, и администрация не несет ответственности за их содержание. Просьба не заливать файлы, защищенные авторскими правами, а также файлы нелегального содержания!