[ Сегодня идет свободное скачивание без начисления Download ]


Статистика раздачи
Нет
 
   
 
Top  
 
 
-Голгофа / Calvary (2014) BDRemux
«Убить священника в воскресенье - хорошая идея»
- Год выпуска: 2014
Производство: Ирландия, Великобритания / Irish Film Board
Жанр: Драма, черная комедия
Описание фильма:
Давно не было такой недельки у отца Джеймса: исповедь, начинающая со слов «я собираюсь вас убить», поджог церкви и драка в пабе. Быть священником и направлять свою паству непросто. Без чувства юмора, иронии и прощения не обойтись.
Режиссер: Джон Майкл МакДона / John Michael McDonagh
Продюсер: Крис Кларк, Флора Фернандес-Маренго, Джеймс Флинн
Актеры: Брендан Глисон, Крис О’Дауд, Келли Райлли, Эйден Гиллен, Дилан Моран, Исаак Де Банколе, М. Эммет Уолш, Мари-Жозе Кроз, Донал Глисон, Дэвид Уилмот
Язык: Русский, английский
Перевод: Многоголосый закадровый (профессиональный)
Вид субтитров: Вшитые отключаемые
Язык субтитров: Русский

Дата мировой премьеры: 19 января 2014
Дата российской премьеры: 17 апреля 2014, «Премиум Фильм»
Дата выхода DVD релиза: 26 июня 2014, «CP Дистрибуция»
Дата выхода Blu-Ray релиза: 26 июня 2014, «CP Дистрибуция»
Рейтинг MPAA: R
Возраст: 16+
Продолжительность: 01:41:30
Качество видео: BDRemux
Видео: MPEG-4 AVC/H.264, 1920x1080, ~15934 kbps, 0.339 bit/pixel, 24 fps
Аудио 1: DTS-HD MA 5.1, 2326 kbps, 48 kHz, 16-bit [Русский - многоголосый закадровый]
Аудио 2: AC3 5.1, 640 kbps, 48 kHz, 16-bit [Русский - многоголосый закадровый]
Аудио 3: DTS-HD MA 5.1, 2213 kbps, 48 kHz, 16-bit [Английский - оригинал]

Отчёт MediaInfo

Полное имя : D:\Голгофа-Calvary.(2014).BDRemux.[1080p].mkv
Формат : Matroska
Версия формата : Version 2
Размер файла : 15,0 Гбайт
Продолжительность : 1 ч. 41 м.
Режим общего битрейта : Переменный
Общий поток : 21,1 Мбит/сек
Название фильма : Calvary (2014) / Lelya_K for NNM-Club
Дата кодирования : UTC 2014-06-25 19:42:21
Программа кодирования : mkvmerge v5.7.0 ('The Whirlwind') built on Aug 7 2012 14:11:40
Библиотека кодирования : libebml v1.2.3 + libmatroska v1.3.0
Attachment : Yes
Видео
Идентификатор : 1
Формат : AVC
Формат/Информация : Advanced Video Codec
Профиль формата : Main@L4.1
Параметр CABAC формата : Да
Параметр ReFrames формата : 3 кадра
Идентификатор кодека : V_MPEG4/ISO/AVC
Продолжительность : 1 ч. 41 м.
Вид битрейта : Переменный
Битрейт : 16,9 Мбит/сек
Максимальный битрейт : 25,0 Мбит/сек
Ширина : 1920 пикселей
Высота : 1080 пикселей
Соотношение сторон : 16:9
Режим частоты кадров : Постоянный
Частота кадров : 24,000 кадра/сек
Стандарт вещания : NTSC
Цветовое пространство : YUV
Субдискретизация насыщенности : 4:2:0
Битовая глубина : 8 бит
Тип развёртки : Прогрессивная
Бит/(Пиксели*Кадры) : 0.339
Размер потока : 12,0 Гбайт (80%)
Заголовок : Голгофа-Calvary.(2014).BDRemux.[1080p]
Язык : English
Default : Да
Forced : Нет
Аудио #1
Идентификатор : 2
Формат : DTS
Формат/Информация : Digital Theater Systems
Профиль формата : MA / Core
Идентификатор кодека : A_DTS
Продолжительность : 1 ч. 41 м.
Вид битрейта : Переменный
Битрейт : 1585 Кбит/сек / 1510 Кбит/сек
Каналы : 6 каналов
Расположение каналов : Front: L C R, Side: L R, LFE
Частота : 48,0 КГц
Битовая глубина : 16 бит
Метод сжатия : Без потерь / Lossy
Заголовок : DTS-HD MA 5.1 / 2326 kbps / MVO
Язык : Russian
Default : Да
Forced : Нет
Аудио #2
Идентификатор : 3
Формат : AC-3
Формат/Информация : Audio Coding 3
Расширение режима : CM (complete main)
Параметр Endianness формата : Big
Идентификатор кодека : A_AC3
Продолжительность : 1 ч. 41 м.
Вид битрейта : Постоянный
Битрейт : 640 Кбит/сек
Каналы : 6 каналов
Расположение каналов : Front: L C R, Side: L R, LFE
Частота : 48,0 КГц
Битовая глубина : 16 бит
Метод сжатия : С потерями
Размер потока : 465 Мбайт (3%)
Заголовок : AC3 5.1 / 640 kbps / MVO
Язык : Russian
Default : Нет
Forced : Нет
Аудио #3
Идентификатор : 4
Формат : DTS
Формат/Информация : Digital Theater Systems
Профиль формата : MA / Core
Идентификатор кодека : A_DTS
Продолжительность : 1 ч. 41 м.
Вид битрейта : Переменный
Битрейт : 1585 Кбит/сек / 1510 Кбит/сек
Каналы : 6 каналов
Расположение каналов : Front: L C R, Side: L R, LFE
Частота : 48,0 КГц
Битовая глубина : 16 бит
Метод сжатия : Без потерь / Lossy
Заголовок : DTS-HD MA 5.1 / 2213 kbps / Original
Язык : English
Default : Нет
Forced : Нет
Текст
Идентификатор : 5
Формат : UTF-8
Идентификатор кодека : S_TEXT/UTF8
Идентификатор кодека/Информация : UTF-8 Plain Text
Заголовок : Full
Язык : Russian
Default : Нет
Forced : Нет
Меню
00:00:00.000 : en:Chapter 1
00:09:51.125 : en:Chapter 2
00:19:20.166 : en:Chapter 3
00:28:08.208 : en:Chapter 4
00:38:09.625 : en:Chapter 5
00:47:33.041 : en:Chapter 6
00:58:09.500 : en:Chapter 7
01:04:43.291 : en:Chapter 8
01:10:57.000 : en:Chapter 9
01:19:39.166 : en:Chapter 10
01:24:27.333 : en:Chapter 11
01:29:28.500 : en:Chapter 12
01:36:53.166 : en:Chapter 13
Скриншоты:


Время раздачи: 24/7 (до 10 скачавших)

[Цитировать]



Показать сообщения:    

Текущее время: 09-Дек 20:26

Часовой пояс: UTC + 3


Вы не можете начинать темы
Вы не можете отвечать на сообщения
Вы не можете редактировать свои сообщения
Вы не можете удалять свои сообщения
Вы не можете голосовать в опросах
Вы не можете прикреплять файлы к сообщениям
Вы не можете скачивать файлы

!ВНИМАНИЕ!
Сайт не предоставляет электронные версии произведений, а занимается лишь коллекционированием и каталогизацией ссылок, присылаемых и публикуемых на форуме нашими читателями. Если вы являетесь правообладателем какого-либо представленного материала и не желаете, чтобы ссылка на него находилась в нашем каталоге, свяжитесь с нами, и мы незамедлительно удалим ее. Файлы для обмена на трекере предоставлены пользователями сайта, и администрация не несет ответственности за их содержание. Просьба не заливать файлы, защищенные авторскими правами, а также файлы нелегального содержания!