[ Сегодня идет свободное скачивание без начисления Download ]


Статистика раздачи
Нет
 
   
 
Top  
 
 
-Лекарь: Ученик Авиценны / The Physician (2013) BDRip- Год выпуска: 2013
Производство: Германия - UFA Cinema, ARD Degeto Film, Beta Cinema
Жанр: Драма, Приключения
Режиссер: Филипп Штёльцль / Philipp St?lzl
Актеры: Том Пэйн, Бен Кингсли, Эмма Ригби, Стеллан Скарсгард, Оливье Мартинес, Элиас ЭмБарек, Майкл Джибсон, Стэнли Таунсенд, Майкл Маркус Морган, Адам Томас Райт
Описание фильма:
Англия, XI век. Мать десятилетнего Роба Коула умирает в страшных мучениях: никто не знает ни природы её болезни, ни лекарства против неё. Маленький Роб, потрясенный до глубины души, во что бы то ни стало стремится разгадать эту тайну.Ему суждено пройти долгий путь, от Англии до Персии, его учителями становятся сначала обыкновенный шарлатан Барбер, а потом — великий лекарь Авиценна. Мудрый учитель видит в Робе необыкновенный талант к медицине, но советует ему не спешить делать вещи, которые не соответствуют веку. Но Роб ни перед чем не останавливается в своем желании научиться спасать людей от смерти, и над его собственной жизнью нависает угроза, ведь он дважды пошел против предрассудков: использовал для научных исследований тело человека и полюбил женщину, отданную в жены другому.
Перевод: Дублированный
Субтитры: Вшитые отключаемые
Язык субтитров: Русский

Дата мировой премьеры: 25 декабря 2013
Дата российской премьеры: 6 февраля 2014, «Люксор»
Дата выхода DVD/BD релизов: 1 апреля 2014, «Lizard Cinema Trade»
Продолжительность: 02:35:06
Качество видео: BDRip 1080p [ESP Transfer] Rip by ollan
Видеокодек: MPEG-4 AVC/H.264
Видео: 8888 Кбит/с, 1920x816, 24.000 кадр/с
Аудио #1: Русский: AC3, 5.1, 640 Кбит/с, 48 kHz, 16 bit
Аудио #2: Русский: DTS, 5.1, 1536 Кбит/с, 48 kHz, 16 bit
Аудио #3: Английский: DTS, 5.1, 1536 Кбит/с, 48 kHz, 16 bit
Сохранены оригинальные чаптеры как на Blu-Ray

Знаете ли вы, что...:

* Фильм основан на сюжете одноименного романа американского писателя Ноа Гордона.
* Для натурных съемок фильма съемочная группа выезжала в Марокко и Восточную Германию. В восточной части Германии сохранился один из последних в Европе замков XI века, что как нельзя кстати подошло для изображения Англии того времени. Марокко на экранах кинотеатров становится Персией.
* Стремление к достоверности в натурных съемках привело к задержке в производстве в целый год: из-за беспорядков в арабских странах назначенные на весну 2011 года съемки в Марокко пришлось отложить.

Рецензия:

Все знают, что это невозможно. Но вот приходит невежда, которому это неизвестно — он-то и делает открытие.(с) А. Эйнштейн

Мировой бестселлер оправдал лично мои надежды. Не смотря на непривлекательное название фильма я была тронута историей одного человека.
Эта книга по большому счету и выдумка автора, но разве мало реальных примеров в истории, где жажда к познанию приводила людей к великим открытиям
Конечно фильм-это всеголишь фильм, но хотелось сказать огромное спасибо и автору, и всем тем, кто вносил свою лепту в создание фильма, ибо всё в этом фильме было гармонично и сделано с отсылками на реальность событий тех времен.
Не буду описывать игру актёров или же их персонажей (каждому судить самому только после просмотра), однако хотелось заметить, что смысл фильма заключается в одном человеке, который просто хотел знать больше, который вопреки всему объехал полсвета, чтоб получить ответы. Его полную отдачу медицине мы видим на протяжении всего фильма, но самое главное, что делает он это не ради денег, а ради безвозмездной помощи другим.
Если вы просмотрите этот фильм, то он навсегда оставит след в вашей памяти, как одного вопреки всем. Ну и как полагается — история любви главного героя с очаровательной красоткой, тоже не оставит равнодушных в стороне:)
Приятного просмотра!
10 из 10

MediaInfo:

Общее
Уникальный идентификатор : 175396889458942957889784570569113710055 (0x83F4364FDD501E659500AE95DDA3ADE7)
Полное имя : D:\Video\The.Physician.2013.x264.BDRip.1080p.mkv
Формат : Matroska
Версия формата : Version 2
Размер файла : 13,6 Гбайт
Продолжительность : 2 ч. 35 м.
Общий поток : 12,5 Мбит/сек
Название фильма : Лекарь: Ученик Авиценны.2013.Rip by: ollan
Дата кодирования : UTC 2014-06-28 10:41:10
Программа кодирования : mkvmerge v5.6.0 ('Kenya Kane') built on May 27 2012 16:44:04
Библиотека кодирования : libebml v1.2.3 + libmatroska v1.3.0
Видео
Идентификатор : 1
Формат : AVC
Формат/Информация : Advanced Video Codec
Профиль формата : High@L4.1
Параметр CABAC формата : Да
Параметр ReFrames формата : 5 кадров
Идентификатор кодека : V_MPEG4/ISO/AVC
Продолжительность : 2 ч. 35 м.
Битрейт : 8888 Кбит/сек
Ширина : 1920 пикселей
Высота : 816 пикселей
Соотношение сторон : 2,35:1
Режим частоты кадров : Постоянный
Частота кадров : 24,000 кадра/сек
Цветовое пространство : YUV
Субдискретизация насыщенности : 4:2:0
Битовая глубина : 8 бит
Тип развёртки : Прогрессивная
Бит/(Пиксели*Кадры) : 0.236
Размер потока : 9,36 Гбайт (69%)
Библиотека кодирования : x264 core 125 r2200 999b753
Настройки программы : cabac=1 / ref=5 / deblock=1:-3:-3 / analyse=0x3:0x133 / me=umh / subme=11 / psy=1 / psy_rd=1.00:0.10 / mixed_ref=1 / me_range=32 / chroma_me=1 / trellis=2 / 8x8dct=1 / cqm=0 / deadzone=21,11 / fast_pskip=0 / chroma_qp_offset=-3 / threads=12 / lookahead_threads=2 / sliced_threads=0 / nr=0 / decimate=0 / interlaced=0 / bluray_compat=0 / constrained_intra=0 / bframes=9 / b_pyramid=2 / b_adapt=2 / b_bias=0 / direct=3 / weightb=1 / open_gop=0 / weightp=2 / keyint=240 / keyint_min=23 / scenecut=40 / intra_refresh=0 / rc_lookahead=40 / rc=2pass / mbtree=1 / bitrate=8888 / ratetol=1.0 / qcomp=0.60 / qpmin=0 / qpmax=69 / qpstep=4 / cplxblur=20.0 / qblur=0.5 / ip_ratio=1.40 / aq=1:1.00
Язык : English
Default : Да
Forced : Нет
Аудио #1
Идентификатор : 2
Формат : AC-3
Формат/Информация : Audio Coding 3
Расширение режима : CM (complete main)
Параметр Endianness формата : Big
Идентификатор кодека : A_AC3
Продолжительность : 2 ч. 35 м.
Вид битрейта : Постоянный
Битрейт : 640 Кбит/сек
Каналы : 6 каналов
Расположение каналов : Front: L C R, Side: L R, LFE
Частота : 48,0 КГц
Битовая глубина : 16 бит
Метод сжатия : С потерями
Размер потока : 710 Мбайт (5%)
Заголовок : Дублированный (Лицензия)
Язык : Russian
Default : Да
Forced : Нет
Аудио #2
Идентификатор : 3
Формат : DTS
Формат/Информация : Digital Theater Systems
Режим : 16
Параметр Endianness формата : Big
Идентификатор кодека : A_DTS
Продолжительность : 2 ч. 35 м.
Вид битрейта : Постоянный
Битрейт : 1509 Кбит/сек
Каналы : 6 каналов
Расположение каналов : Front: L C R, Side: L R, LFE
Частота : 48,0 КГц
Битовая глубина : 16 бит
Метод сжатия : С потерями
Размер потока : 1,63 Гбайт (12%)
Заголовок : Дублированный (Лицензия)
Язык : Russian
Default : Нет
Forced : Нет
Аудио #3
Идентификатор : 4
Формат : DTS
Формат/Информация : Digital Theater Systems
Режим : 16
Параметр Endianness формата : Big
Идентификатор кодека : A_DTS
Продолжительность : 2 ч. 35 м.
Вид битрейта : Постоянный
Битрейт : 1509 Кбит/сек
Каналы : 6 каналов
Расположение каналов : Front: L C R, Side: L R, LFE
Частота : 48,0 КГц
Битовая глубина : 16 бит
Метод сжатия : С потерями
Размер потока : 1,63 Гбайт (12%)
Язык : English
Default : Нет
Forced : Нет
Текст
Идентификатор : 5
Формат : UTF-8
Идентификатор кодека : S_TEXT/UTF8
Идентификатор кодека/Информация : UTF-8 Plain Text
Заголовок : Full
Язык : Russian
Default : Нет
Forced : Нет
Меню
00:00:00.000 : :Chapter 01
00:14:53.707 : :Chapter 02
00:23:46.791 : :Chapter 03
00:32:22.750 : :Chapter 04
00:42:15.875 : :Chapter 05
00:53:59.457 : :Chapter 06
01:04:23.083 : :Chapter 07
01:14:37.750 : :Chapter 08
01:25:50.791 : :Chapter 09
01:36:40.250 : :Chapter 10
01:46:43.291 : :Chapter 11
01:55:46.250 : :Chapter 12
02:02:24.458 : :Chapter 13
02:12:18.667 : :Chapter 14
02:25:07.167 : :Chapter 15

Сравнение трансферов:

http://screenshotcomparison.com/comparison/81067
Скриншоты:

[Цитировать]



Показать сообщения:    

Текущее время: 27-Мар 08:46

Часовой пояс: UTC + 6


Вы не можете начинать темы
Вы не можете отвечать на сообщения
Вы не можете редактировать свои сообщения
Вы не можете удалять свои сообщения
Вы не можете голосовать в опросах
Вы не можете прикреплять файлы к сообщениям
Вы не можете скачивать файлы

!ВНИМАНИЕ!
Сайт не предоставляет электронные версии произведений, а занимается лишь коллекционированием и каталогизацией ссылок, присылаемых и публикуемых на форуме нашими читателями. Если вы являетесь правообладателем какого-либо представленного материала и не желаете, чтобы ссылка на него находилась в нашем каталоге, свяжитесь с нами, и мы незамедлительно удалим ее. Файлы для обмена на трекере предоставлены пользователями сайта, и администрация не несет ответственности за их содержание. Просьба не заливать файлы, защищенные авторскими правами, а также файлы нелегального содержания!