[ Сегодня идет свободное скачивание без начисления Download ]


Статистика раздачи
Нет
 
   
 
Top  
 
 
-Беги, мальчик, беги / Lauf Junge lauf (2013) DVDRip- Год выпуска: 2013
Производство: Германия, Франция / arte France Cin?ma
Жанр: Боевик, драма, военный
Описание фильма:
Это судьба восьмилетнего мальчика, беглеца из варшавского гетто, который потерял всю семью и получил помощь от чужих людей. Он попадает в дом доброй польки. Женщина решается его приютить и уговаривает, чтобы ради безопасности выдавал себя за осиротевшего поляка католического вероисповедания. Из-за драматически сложившихся обстоятельств мальчик должен был уйти из гостеприимного дома и отправиться в полную приключений и опасности дорогу по охваченной войной стране. Благодаря помощи польских семей, он пробует пережить кошмар оккупации…
Режиссер: Пепе Данкварт
Продюсер: Пепе Данкварт, Уве Спиллер, Корнелиус Конрад
Актеры: Райнер Бок, Жанетт Хайн, Итай Тиран, Йохен Хаэгеле, Себастьян Хюльк, Збигнев Замаховский, Адриан Тополь, Гражина Шаполовска, Камиль Ткач, Гражина Бленцка-Кольска
Перевод: Многоголосый закадровый, профессиональный
Субтитры: Отсутствуют

Дата мировой премьеры: 5 ноября 2013
Продолжительность: 01:42:53
Качество видео: DVDRip
Видео: XviD, 720x304, ~1829 kbps, 0.334 bit/pixel, 25 fps
Аудио: AC3 2.0, 192 kbps, 48 KHz, 16-bit (Русский) / MVO

Отчёт MediaInfo

Формат : AVI
Формат/Информация : Audio Video Interleave
Размер файла : 1,46 Гбайт
Продолжительность : 1 ч. 42 м.
Общий поток : 2031 Кбит/сек
Программа кодирования : VirtualDubMod 1.5.10.2 (build 2540/release)
Библиотека кодирования : VirtualDubMod build 2540/release
Видео
Идентификатор : 0
Формат : MPEG-4 Visual
Профиль формата : Advanced Simple@L5
Параметр BVOP формата : 2
Параметр QPel формата : Нет
Параметр GMC формата : Без точки перехода
Параметр матрицы формата : Default (MPEG)
Идентификатор кодека : XVID
Идентификатор кодека/Подсказка : XviD
Продолжительность : 1 ч. 42 м.
Битрейт : 1829 Кбит/сек
Ширина : 720 пикселей
Высота : 304 пикселя
Соотношение сторон : 2,35:1
Частота кадров : 25,000 кадров/сек
Цветовое пространство : YUV
Субдискретизация насыщенности : 4:2:0
Битовая глубина : 8 бит
Тип развёртки : Прогрессивная
Метод сжатия : С потерями
Бит/(Пиксели*Кадры) : 0.334
Размер потока : 1,31 Гбайт (90%)
Библиотека кодирования : XviD 1.2.1 (UTC 2008-12-04)
Аудио
Идентификатор : 1
Формат : AC-3
Формат/Информация : Audio Coding 3
Расширение режима : CM (complete main)
Параметр Endianness формата : Big
Идентификатор кодека : 2000
Продолжительность : 1 ч. 42 м.
Вид битрейта : Постоянный
Битрейт : 192 Кбит/сек
Каналы : 2 канала
Расположение каналов : Front: L R
Частота : 48,0 КГц
Битовая глубина : 16 бит
Метод сжатия : С потерями
Размер потока : 141 Мбайт (9%)
Выравнивание : Разделение по промежуткам
Продолжительность промежутка : 40 мс. (1,00 видеокадр)
Время предзагрузки промежутка : 500 мс.
Скриншоты:


Время раздачи: c 20:00 до 23:00

[Цитировать]



Показать сообщения:    

Текущее время: 08-Дек 08:52

Часовой пояс: UTC + 3


Вы не можете начинать темы
Вы не можете отвечать на сообщения
Вы не можете редактировать свои сообщения
Вы не можете удалять свои сообщения
Вы не можете голосовать в опросах
Вы не можете прикреплять файлы к сообщениям
Вы не можете скачивать файлы

!ВНИМАНИЕ!
Сайт не предоставляет электронные версии произведений, а занимается лишь коллекционированием и каталогизацией ссылок, присылаемых и публикуемых на форуме нашими читателями. Если вы являетесь правообладателем какого-либо представленного материала и не желаете, чтобы ссылка на него находилась в нашем каталоге, свяжитесь с нами, и мы незамедлительно удалим ее. Файлы для обмена на трекере предоставлены пользователями сайта, и администрация не несет ответственности за их содержание. Просьба не заливать файлы, защищенные авторскими правами, а также файлы нелегального содержания!