[ Сегодня идет свободное скачивание без начисления Download ]


Статистика раздачи
Нет
 
   
 
 
 
-[EN] Солнце в 3D / 3D Sun (2007) HDTVRip [1080p]- Язык: Английский
Русское название: Солнце в 3D
Оригинальное название: 3D Sun
Режиссер / Телекомпания: NASA
Год выпуска: 2007
Жанр: Документальный
Страна: США
Описание:
На основе 3D технологии NASA создало объемное изображения солнца для большего удобства специалистов, которые теперь имеют возможность наблюдать за ним вне лабораторий.
Продолжительность: 00:21:58
Перевод: Отсутствует
Видеокодек: Xvid
Битрейт видео: ~2 079 Kbps
Размер кадра: 1920х1080
Качество видео: HDTVRip [1080p]
Аудиокодек: MP3
Битрейт аудио: 48.0 KHz 192 Kbps 2 channels
Доп. информация: От себя добавлю: видео довольно впечатляющее, картинка шикарная, достаточно посмотреть скриншоты...
Формат 3D: Anaglyph / Анаглиф red'cyan
Цвета очков:

MediaInfo

Видео
Идентификатор                    : 0
Формат                           : MPEG-4 Visual
Профиль формата                  : Advanced [email protected]
Параметр BVOP формата            : 2
Параметр QPel формата            : Нет
Параметр GMC формата             : Без точки перехода
Параметр матрицы формата         : Default (H.263)
Режим смешивания                 : Сжатый битовый поток
Идентификатор кодека             : XVID
Идентификатор кодека/Подсказка   : XviD
Продолжительность                : 21 м.
Битрейт                          : 2079 Кбит/сек
Ширина                           : 1920 пикс.
Высота                           : 1080 пикс.
Соотношение сторон               : 16:9
Частота кадров                   : 25,000 кадр/сек
Цветовое пространство            : YUV
Подвыборка цветности             : 4:2:0
Битовая глубина                  : 8 бит
Тип развёртки                    : Прогрессивная
Метод сжатия                     : С потерями
Бит/(Пиксели*Кадры)              : 0.040
Размер потока                    : 327 Мбайт (91%)
Библиотека кодирования           : XviD 1.2.1 (UTC 2008-12-04)
Аудио
Идентификатор                    : 1
Формат                           : MPEG Audio
Версия формата                   : Version 1
Профиль формата                  : Layer 3
Режим                            : Joint stereo
Расширение режима                : MS Stereo
Идентификатор кодека             : 55
Идентификатор кодека/Подсказка   : MP3
Продолжительность                : 21 м.
Вид битрейта                     : Постоянный
Битрейт                          : 192 Кбит/сек
Канал(ы)                         : 2 канала(ов)
Частота                          : 48,0 КГц
Метод сжатия                     : С потерями
Размер потока                    : 30,0 Мбайт (8%)
Выравнивание                     : Разделение по промежуткам
Продолжительность промежутка     : 40  мс. (1,01 видеокадр)
Время предзагрузки промежутка    : 500 ms
Библиотека кодирования           : LAMEЄЄЄ

[Цитировать]



Показать сообщения:    

Текущее время: 04-Дек 17:20

Часовой пояс: UTC + 3


Вы не можете начинать темы
Вы не можете отвечать на сообщения
Вы не можете редактировать свои сообщения
Вы не можете удалять свои сообщения
Вы не можете голосовать в опросах
Вы не можете прикреплять файлы к сообщениям
Вы не можете скачивать файлы

!ВНИМАНИЕ!
Сайт не предоставляет электронные версии произведений, а занимается лишь коллекционированием и каталогизацией ссылок, присылаемых и публикуемых на форуме нашими читателями. Если вы являетесь правообладателем какого-либо представленного материала и не желаете, чтобы ссылка на него находилась в нашем каталоге, свяжитесь с нами, и мы незамедлительно удалим ее. Файлы для обмена на трекере предоставлены пользователями сайта, и администрация не несет ответственности за их содержание. Просьба не заливать файлы, защищенные авторскими правами, а также файлы нелегального содержания!