[ Today is free to download without increasing Download ]

DL-List and Torrent activity
-[EN] Солнце в 3D / 3D Sun (2007) HDTVRip [1080p]- Язык: Английский
Русское название: Солнце в 3D
Оригинальное название: 3D Sun
Режиссер / Телекомпания: NASA
Год выпуска: 2007
Жанр: Документальный
Страна: США
На основе 3D технологии NASA создало объемное изображения солнца для большего удобства специалистов, которые теперь имеют возможность наблюдать за ним вне лабораторий.
Продолжительность: 00:21:58
Перевод: Отсутствует
Видеокодек: Xvid
Битрейт видео: ~2 079 Kbps
Размер кадра: 1920х1080
Качество видео: HDTVRip [1080p]
Аудиокодек: MP3
Битрейт аудио: 48.0 KHz 192 Kbps 2 channels
Доп. информация: От себя добавлю: видео довольно впечатляющее, картинка шикарная, достаточно посмотреть скриншоты...
Формат 3D: Anaglyph / Анаглиф red'cyan
Цвета очков:


Идентификатор                    : 0
Формат                           : MPEG-4 Visual
Профиль формата                  : Advanced Simple@L5
Параметр BVOP формата            : 2
Параметр QPel формата            : Нет
Параметр GMC формата             : Без точки перехода
Параметр матрицы формата         : Default (H.263)
Режим смешивания                 : Сжатый битовый поток
Идентификатор кодека             : XVID
Идентификатор кодека/Подсказка   : XviD
Продолжительность                : 21 м.
Битрейт                          : 2079 Кбит/сек
Ширина                           : 1920 пикс.
Высота                           : 1080 пикс.
Соотношение сторон               : 16:9
Частота кадров                   : 25,000 кадр/сек
Цветовое пространство            : YUV
Подвыборка цветности             : 4:2:0
Битовая глубина                  : 8 бит
Тип развёртки                    : Прогрессивная
Метод сжатия                     : С потерями
Бит/(Пиксели*Кадры)              : 0.040
Размер потока                    : 327 Мбайт (91%)
Библиотека кодирования           : XviD 1.2.1 (UTC 2008-12-04)
Идентификатор                    : 1
Формат                           : MPEG Audio
Версия формата                   : Version 1
Профиль формата                  : Layer 3
Режим                            : Joint stereo
Расширение режима                : MS Stereo
Идентификатор кодека             : 55
Идентификатор кодека/Подсказка   : MP3
Продолжительность                : 21 м.
Вид битрейта                     : Постоянный
Битрейт                          : 192 Кбит/сек
Канал(ы)                         : 2 канала(ов)
Частота                          : 48,0 КГц
Метод сжатия                     : С потерями
Размер потока                    : 30,0 Мбайт (8%)
Выравнивание                     : Разделение по промежуткам
Продолжительность промежутка     : 40  мс. (1,01 видеокадр)
Время предзагрузки промежутка    : 500 ms
Библиотека кодирования           : LAMEЄЄЄ


Display posts:    

Current time is: 24-Oct 11:48

All times are UTC + 3

You cannot post new topics in this forum
You cannot reply to topics in this forum
You cannot edit your posts in this forum
You cannot delete your posts in this forum
You cannot vote in polls in this forum
You cannot attach files in this forum
You cannot download files in this forum

The site does not give electronic versions of products, and is engaged only in a collecting and cataloguing of the references sent and published at a forum by our readers. If you are the legal owner of any submitted material and do not wish that the reference to it was in our catalogue, contact us and we shall immediately remove her. Files for an exchange on tracker are given by users of a site, and the administration does not bear the responsibility for their maintenance. The request to not fill in the files protected by copyrights, and also files of the illegal maintenance!