[ Сегодня идет свободное скачивание без начисления Download ]


Статистика раздачи
Нет
 
   
 
Top  
 
 
-Операция «Мертвый снег» 2 / Dod Sno 2 (2014) HDRip- Год выпуска: 2014
Производство: Норвегия, Исландия / Saga Film, Tappeluft Pictures
Жанр: Ужасы, боевик, комедия
Описание фильма:
После встречи в горах с нацистами-зомби лишь Мартину удалось добраться до цивилизации, в то время как все его приятели погибли. Однако парень забыл о маленьком подарке, который он получил от своей возлюбленной Ханны, — золотой монете, которую та нашла в старом доме. Эта монета — часть клада, который подчиненные штандартенфюрера Герцога собирали для своего фюрера. Но даже после смерти немцы не намерены никому отдавать свои сокровища…
Режиссер: Томми Виркола / Tommy Wirkola
Продюсер: Четиль Омберг, Терье Стромстад, Рагнар Агнарссон
Актеры: Амрита Ачария, Жослин Де, Лофи Эльясдоттир, Кристиан Фидженшоу, Шарлотта Фрогнер, Орхан Гамст, Ингар Хельге Гимле, Томас Торхаллур Гудмундсон
Перевод: Двухголосый закадровый (любительский)
Озвучка / Автор перевода: DeadSno & den904
Субтитры: Отсутствуют

Дата мировой премьеры: 19 января 2014
Рейтинг MPAA: R
Возраст: 16+
Продолжительность: 01:40:42
Качество видео: HDRip
Видео: XviD, 720x304, ~1745 kbps, 0.332 bit/pixel, 24 fps
Аудио: AC3 2.0, 192 kbps, 48 KHz, 16-bit (Русский) / DVO

MediaInfo:

Формат : AVI
Формат/Информация : Audio Video Interleave
Размер файла : 1,37 Гбайт
Продолжительность : 1 ч. 40 м.
Общий поток : 1946 Кбит/сек
Программа кодирования : VirtualDubMod 1.5.10.3 | www.virtualdub-fr.org || (build 2550/release)
Библиотека кодирования : VirtualDubMod build 2550/release
Видео
Идентификатор : 0
Формат : MPEG-4 Visual
Профиль формата : Advanced [email protected]
Параметр BVOP формата : 1
Параметр QPel формата : Нет
Параметр GMC формата : Без точки перехода
Параметр матрицы формата : Выборочная
Идентификатор кодека : XVID
Идентификатор кодека/Подсказка : XviD
Продолжительность : 1 ч. 40 м.
Битрейт : 1745 Кбит/сек
Ширина : 720 пикселей
Высота : 304 пикселя
Соотношение сторон : 2,35:1
Частота кадров : 24,000 кадра/сек
Цветовое пространство : YUV
Субдискретизация насыщенности : 4:2:0
Битовая глубина : 8 бит
Тип развёртки : Прогрессивная
Метод сжатия : С потерями
Бит/(Пиксели*Кадры) : 0.332
Размер потока : 1,23 Гбайт (90%)
Библиотека кодирования : XviD 73
Аудио
Идентификатор : 1
Формат : AC-3
Формат/Информация : Audio Coding 3
Расширение режима : CM (complete main)
Параметр Endianness формата : Big
Идентификатор кодека : 2000
Продолжительность : 1 ч. 40 м.
Вид битрейта : Постоянный
Битрейт : 192 Кбит/сек
Каналы : 2 канала
Расположение каналов : Front: L R
Частота : 48,0 КГц
Битовая глубина : 16 бит
Метод сжатия : С потерями
Размер потока : 138 Мбайт (10%)
Выравнивание : Разделение по промежуткам
Продолжительность промежутка : 42 мс. (1,00 видеокадр)
Время предзагрузки промежутка : 500 мс.
Скриншоты:


Время раздачи: c 20:00 до 23:00

[Цитировать]



Показать сообщения:    

Текущее время: 05-Дек 05:30

Часовой пояс: UTC + 3


Вы не можете начинать темы
Вы не можете отвечать на сообщения
Вы не можете редактировать свои сообщения
Вы не можете удалять свои сообщения
Вы не можете голосовать в опросах
Вы не можете прикреплять файлы к сообщениям
Вы не можете скачивать файлы

!ВНИМАНИЕ!
Сайт не предоставляет электронные версии произведений, а занимается лишь коллекционированием и каталогизацией ссылок, присылаемых и публикуемых на форуме нашими читателями. Если вы являетесь правообладателем какого-либо представленного материала и не желаете, чтобы ссылка на него находилась в нашем каталоге, свяжитесь с нами, и мы незамедлительно удалим ее. Файлы для обмена на трекере предоставлены пользователями сайта, и администрация не несет ответственности за их содержание. Просьба не заливать файлы, защищенные авторскими правами, а также файлы нелегального содержания!