[ Сегодня идет свободное скачивание без начисления Download ]


Статистика раздачи
Нет
 
   
 
Top  
 
 
-Операция «Мертвый снег» 2 / Dod Sno 2 (2014) BDRip- Год выпуска: 2014
Производство: Норвегия, Исландия | Saga Film, Tappeluft Pictures, thefyzz, XYZ Films
Жанр: Ужасы, Боевик, Комедия
Описание фильма:
После встречи в горах с нацистами-зомби лишь Мартину удалось добраться до цивилизации, в то время как все его приятели погибли. Однако парень забыл о маленьком подарке, который он получил от своей возлюбленной Ханны, — золотой монете, которую та нашла в старом доме. Эта монета — часть клада, который подчиненные штандартенфюрера Герцога собирали для своего фюрера. Но даже после смерти немцы не намерены никому отдавать свои сокровища…
Режиссер: Томми Виркола
Продюсер: Четиль Омберг, Терье Стромстад, Рагнар Агнарссон
Актеры: Амрита Ачария, Жослин Де, Лофи Эльясдоттир, Кристиан Фидженшоу, Шарлотта Фрогнер, Орхан Гамст, Ингар Хельге Гимле, Томас Торхаллур Гудмундсон
Перевод: Двуголосый закадровый, любительский
Озвучка / Автор перевода: DeadSno & den904
Субтитры: Отсутствуют

Дата мировой премьеры: 19 января 2014 (США Кинофестиваль «Сандэнс»)
Продолжительность: 01:40:42
Качество видео: BDRip [720p]
Видео кодек: MPEG-4 AVC/H.264
Видео: 1280x536 (2.40:1), 24.000 fps, ~5445 kbps avg, 0.331 bit/pixel
Аудио №1: 48 kHz, AC-3, 2 ch, (Front: L, R), ~192 kbps avg | DVO [DeadSno & den904]
Аудио №2: 48 kHz, AC-3, 6 ch, (Front: L C R, Side: L R), LFE ~640 kbps avg | Оригинал (норвежский)
Сэмпл: Скачать

MediaInfo

General
Unique ID                      : 207202497676564993502583271211359430638 (0x9BE1BFDE195A532CB3F0F6D7ED8267EE)
Complete name                  : D:\фильмы\Operacija.Mertvyj.sneg.2.2014.BDRip.720p.mkv
Format                         : Matroska
Format version                 : Version 4 / Version 2
File size                      : 4.42 GiB
Duration                       : 1h 40mn
Overall bit rate               : 6 278 Kbps
Encoded date                   : UTC 2014-07-05 05:39:45
Writing application            : mkvmerge v6.1.0 ('Old Devil') built on Mar  4 2013 09:10:42
Writing library                : libebml v1.3.0 + libmatroska v1.4.0
Video
ID                             : 1
Format                         : AVC
Format/Info                    : Advanced Video Codec
Format profile                 : [url=mailto:High@L4.1]High@L4.1[/url]
Format settings, CABAC         : Yes
Format settings, ReFrames      : 11 frames
Codec ID                       : V_MPEG4/ISO/AVC
Duration                       : 1h 40mn
Bit rate                       : 5 445 Kbps
Width                          : 1 280 pixels
Height                         : 536 pixels
Display aspect ratio           : 2.40:1
Frame rate mode                : Constant
Frame rate                     : 24.000 fps
Color space                    : YUV
Chroma subsampling             : 4:2:0
Bit depth                      : 8 bits
Scan type                      : Progressive
Bits/(Pixel*Frame)             : 0.331
Stream size                    : 3.74 GiB (85%)
Writing library                : x264 core 130 r2273 b3065e6
Encoding settings              : cabac=1 / ref=11 / deblock=1:-3:-3 / analyse=0x3:0x133 / me=umh / subme=11 / psy=1 / psy_rd=1.00:0.20 / mixed_ref=1 / me_range=32 / chroma_me=1 / trellis=2 / 8x8dct=1 / cqm=0 / deadzone=21,11 / fast_pskip=0 / chroma_qp_offset=-3 / threads=12 / lookahead_threads=2 / sliced_threads=0 / nr=0 / decimate=0 / interlaced=0 / bluray_compat=0 / constrained_intra=0 / bframes=9 / b_pyramid=2 / b_adapt=2 / b_bias=0 / direct=3 / weightb=1 / open_gop=0 / weightp=2 / keyint=250 / keyint_min=23 / scenecut=40 / intra_refresh=0 / rc_lookahead=80 / rc=2pass / mbtree=1 / bitrate=5445 / ratetol=1.0 / qcomp=0.60 / qpmin=0 / qpmax=69 / qpstep=4 / cplxblur=20.0 / qblur=0.5 / ip_ratio=1.40 / aq=1:1.00
Language                       : English
Default                        : Yes
Forced                         : No
Audio #1
ID                             : 2
Format                         : AC-3
Format/Info                    : Audio Coding 3
Mode extension                 : CM (complete main)
Format settings, Endianness    : Big
Codec ID                       : A_AC3
Duration                       : 1h 40mn
Bit rate mode                  : Constant
Bit rate                       : 192 Kbps
Channel(s)                     : 2 channels
Channel positions              : Front: L R
Sampling rate                  : 48.0 KHz
Bit depth                      : 16 bits
Compression mode               : Lossy
Stream size                    : 138 MiB (3%)
Language                       : Russian
Default                        : Yes
Forced                         : No
Audio #2
ID                             : 3
Format                         : AC-3
Format/Info                    : Audio Coding 3
Mode extension                 : CM (complete main)
Format settings, Endianness    : Big
Codec ID                       : A_AC3
Duration                       : 1h 40mn
Bit rate mode                  : Constant
Bit rate                       : 640 Kbps
Channel(s)                     : 6 channels
Channel positions              : Front: L C R, Side: L R, LFE
Sampling rate                  : 48.0 KHz
Bit depth                      : 16 bits
Compression mode               : Lossy
Stream size                    : 461 MiB (10%)
Language                       : Norwegian
Default                        : No
Forced                         : No
Скриншоты:

Время раздачи: 10:00 - 24:00

[Цитировать]



Показать сообщения:    

Текущее время: 10-Дек 09:59

Часовой пояс: UTC + 3


Вы не можете начинать темы
Вы не можете отвечать на сообщения
Вы не можете редактировать свои сообщения
Вы не можете удалять свои сообщения
Вы не можете голосовать в опросах
Вы не можете прикреплять файлы к сообщениям
Вы не можете скачивать файлы

!ВНИМАНИЕ!
Сайт не предоставляет электронные версии произведений, а занимается лишь коллекционированием и каталогизацией ссылок, присылаемых и публикуемых на форуме нашими читателями. Если вы являетесь правообладателем какого-либо представленного материала и не желаете, чтобы ссылка на него находилась в нашем каталоге, свяжитесь с нами, и мы незамедлительно удалим ее. Файлы для обмена на трекере предоставлены пользователями сайта, и администрация не несет ответственности за их содержание. Просьба не заливать файлы, защищенные авторскими правами, а также файлы нелегального содержания!