[ Сегодня идет свободное скачивание без начисления Download ]


Статистика раздачи
Нет
 
   
 
Top  
 
 
-Шёпот / Whisper (2007) BDRip
« Дьявольские замыслы в играх ребенка »
- Год выпуска: 2007
Производство: США, Канада | Universal Pictures, Canadian Film or Video Production Tax Credit (CPTC)
Жанр: Ужасы, Триллер, Криминал
Описание фильма:
Всё, что хотел Макс Трумонт — это начать всё сначала вместе со своей невестой Роксанной. Но это оказывается не так-то просто для человека, имеющего судимость за непредумышленное убийство. Последний шанс Макса — выполнить задание неизвестного заказчика, объединившись при этом с двумя подозрительными типами.Цель — похищение сына одной из самых состоятельных женщин штата. Макс даже и не мог представить, какими окажутся последствия. Вскоре выясняется, что его «невинная жертва», как и знаменитый персонаж «Омена» Дэмиан, — это ребёнок, владеющий чёрной магией…
Режиссер: Стюарт Хендлер
Актеры: Джош Холлоуэй / Josh Holloway (Max), Сара Уэйн Кэллис / Sarah Wayne Callies (Roxanne), Джоэл Эдгертон / Joel Edgerton (Vince), Джон Капелос / John Kapelos (Whitley), Дьюли Хилл / Dul Hill (Miles), Майкл Рукер / Michael Rooker (Sidney), Дженнифер Ширли / Jennifer Shirley (Nanny), Блейк Вудрафф / Blake Woodruff (David)
Продолжительность: 01:34:43
Качество видео: BDRip [1080p]
Перевод: Профессиональный (полное дублирование) + Профессиональный (двухголосый, закадровый)
Язык субтитров: Отсутствуют

Дата мировой премьеры: 16 мая 2007
Дата российской премьеры: 17 января 2008, «Пирамида»
Видео кодек: MPEG-4 AVC/H.264
Видео: 1920x1080 (16:9), 23.976 fps, ~10.6 Mbps, 0.213 bit/pixel
Аудио №1: 48 kHz, AC-3, 6 ch, (Front: L C R, Side: L R), LFE ~448 kbps avg | Русский [дублированный]
Аудио №2: 48 kHz, AC-3, 6 ch, (Front: L, R), ~192 kbps avg | Русский [двухголосый]
Аудио №3: 48 kHz, AC-3, 6 ch, (Front: L C R, Side: L R), LFE ~448 kbps avg | Оригинал (английский)
Сэмпл: Скачать

MediaInfo

General
Unique ID                      : 228591603092954917670528014848225669209 (0xABF9242F11BD0641BF9A83339D777059)
Complete name                  : I:\Фильмы\Shopot.2007.1080p.BDRip.mkv
Format                         : Matroska
Format version                 : Version 4 / Version 2
File size                      : 7.72 GiB
Duration                       : 1h 34mn
Overall bit rate               : 11.7 Mbps
Encoded date                   : UTC 2014-07-08 18:32:55
Writing application            : mkvmerge v7.0.0 ('Where We Going') 64bit built on Jun  9 2014 15:16:27
Writing library                : libebml v1.3.0 + libmatroska v1.4.1
DURATION                       : 01:34:43.680000000
NUMBER_OF_FRAMES               : 177615
NUMBER_OF_BYTES                : 318286080
_STATISTICS_WRITING_APP        : mkvmerge v7.0.0 ('Where We Going') 64bit built on Jun  9 2014 15:16:27
_STATISTICS_WRITING_DATE_UTC   : 2014-07-08 18:32:55
_STATISTICS_TAGS               : BPS DURATION NUMBER_OF_FRAMES NUMBER_OF_BYTES
Video
ID                             : 1
Format                         : AVC
Format/Info                    : Advanced Video Codec
Format profile                 : [url=mailto:High@L4.1]High@L4.1[/url]
Format settings, CABAC         : Yes
Format settings, ReFrames      : 4 frames
Codec ID                       : V_MPEG4/ISO/AVC
Duration                       : 1h 34mn
Bit rate                       : 10.6 Mbps
Width                          : 1 920 pixels
Height                         : 1 080 pixels
Display aspect ratio           : 16:9
Frame rate mode                : Constant
Frame rate                     : 23.976 fps
Color space                    : YUV
Chroma subsampling             : 4:2:0
Bit depth                      : 8 bits
Scan type                      : Progressive
Bits/(Pixel*Frame)             : 0.213
Stream size                    : 6.85 GiB (89%)
Writing library                : x264 core 142 r2431kMod ac76440
Encoding settings              : cabac=1 / ref=4 / deblock=1:-2:-3 / analyse=0x3:0x133 / me=umh / subme=11 / psy=1 / fade_compensate=0.00 / psy_rd=1.00:0.00 / mixed_ref=1 / me_range=32 / chroma_me=1 / trellis=2 / 8x8dct=1 / cqm=0 / deadzone=21,11 / fast_pskip=0 / chroma_qp_offset=-2 / threads=6 / lookahead_threads=1 / sliced_threads=0 / nr=0 / decimate=1 / interlaced=0 / bluray_compat=0 / constrained_intra=0 / fgo=0 / bframes=8 / b_pyramid=2 / b_adapt=2 / b_bias=0 / direct=3 / weightb=1 / open_gop=0 / weightp=2 / keyint=250 / keyint_min=23 / scenecut=40 / intra_refresh=0 / rc_lookahead=150 / rc=2pass / mbtree=0 / bitrate=10587 / ratetol=1.0 / qcomp=0.70 / qpmin=0 / qpmax=69 / qpstep=4 / cplxblur=20.0 / qblur=0.5 / vbv_maxrate=62500 / vbv_bufsize=78125 / nal_hrd=none / filler=0 / ip_ratio=1.30 / pb_ratio=1.20 / aq=1:0.80
Language                       : English
Default                        : Yes
Forced                         : No
DURATION                       : 01:34:43.637000000
NUMBER_OF_FRAMES               : 136271
NUMBER_OF_BYTES                : 7518479671
_STATISTICS_WRITING_APP        : mkvmerge v7.0.0 ('Where We Going') 64bit built on Jun  9 2014 15:16:27
_STATISTICS_WRITING_DATE_UTC   : 2014-07-08 18:32:55
_STATISTICS_TAGS               : BPS DURATION NUMBER_OF_FRAMES NUMBER_OF_BYTES
Matrix coefficients            : BT.709
Audio #1
ID                             : 2
Format                         : AC-3
Format/Info                    : Audio Coding 3
Mode extension                 : CM (complete main)
Format settings, Endianness    : Big
Codec ID                       : A_AC3
Duration                       : 1h 34mn
Bit rate mode                  : Constant
Bit rate                       : 448 Kbps
Channel(s)                     : 6 channels
Channel positions              : Front: L C R, Side: L R, LFE
Sampling rate                  : 48.0 KHz
Bit depth                      : 16 bits
Compression mode               : Lossy
Stream size                    : 304 MiB (4%)
Title                          : дубляж
Language                       : Russian
Default                        : Yes
Forced                         : No
Audio #2
ID                             : 3
Format                         : AC-3
Format/Info                    : Audio Coding 3
Mode extension                 : CM (complete main)
Format settings, Endianness    : Big
Codec ID                       : A_AC3
Duration                       : 1h 34mn
Bit rate mode                  : Constant
Bit rate                       : 192 Kbps
Channel(s)                     : 2 channels
Channel positions              : Front: L R
Sampling rate                  : 48.0 KHz
Bit depth                      : 16 bits
Compression mode               : Lossy
Stream size                    : 130 MiB (2%)
Title                          : двухголосый
Language                       : Russian
Default                        : No
Forced                         : No
Audio #3
ID                             : 4
Format                         : AC-3
Format/Info                    : Audio Coding 3
Mode extension                 : CM (complete main)
Format settings, Endianness    : Big
Codec ID                       : A_AC3
Duration                       : 1h 34mn
Bit rate mode                  : Constant
Bit rate                       : 448 Kbps
Channel(s)                     : 6 channels
Channel positions              : Front: L C R, Side: L R, LFE
Sampling rate                  : 48.0 KHz
Bit depth                      : 16 bits
Compression mode               : Lossy
Stream size                    : 304 MiB (4%)
Language                       : English
Default                        : No
Forced                         : No
Скриншоты:

Время раздачи: 10:00 - 24:00

[Цитировать]



Показать сообщения:    

Текущее время: 08-Дек 17:15

Часовой пояс: UTC + 3


Вы не можете начинать темы
Вы не можете отвечать на сообщения
Вы не можете редактировать свои сообщения
Вы не можете удалять свои сообщения
Вы не можете голосовать в опросах
Вы не можете прикреплять файлы к сообщениям
Вы не можете скачивать файлы

!ВНИМАНИЕ!
Сайт не предоставляет электронные версии произведений, а занимается лишь коллекционированием и каталогизацией ссылок, присылаемых и публикуемых на форуме нашими читателями. Если вы являетесь правообладателем какого-либо представленного материала и не желаете, чтобы ссылка на него находилась в нашем каталоге, свяжитесь с нами, и мы незамедлительно удалим ее. Файлы для обмена на трекере предоставлены пользователями сайта, и администрация не несет ответственности за их содержание. Просьба не заливать файлы, защищенные авторскими правами, а также файлы нелегального содержания!