[ Сегодня идет свободное скачивание без начисления Download ]


Статистика раздачи
Нет
 
   
 
Top  
 
 
-Малыш-каннабис / Kid Cannabis (2014) HDRip- Год выпуска: 2014
Производство: США, ARM Entertainment (II)
Жанр: Драма, криминал
Режиссер: Джон Стокуэлл
Продюсер: Майкл Бекер, Гордон Бижелонич, Кори Лардж
Актеры: Джонатан Даниэль Браун, Кенни Вормолд, Аарон Йу, Рон Перлман, Джон К. МакГинли, Кори Лардж, Брайс Ходжсон, Алекс Арсено, Джеффри Баллард, Люк Дженнингс
Описание фильма:
Нэйт — исключенный из школы юноша, растущий с матерью-одиночкой и младшим братом. Поняв, что он больше не может выносить бедность и хочет лучшей жизни для семьи, Нэйт начинает раздумывать над тем, как разбогатеть на контрабанде горячо любимой им марихуаны. Как-то клиент, которому Нэйт доставляет пиццу, подсказывает ему, что Канада — выгодное место для совершения такого рода контрабанды. Тогда Нэйт и Тофер — его более зрелый друг, также обожающий марихуану — отправляются туда «на разведку», с чего и начинается их путь к богатству через многообещающий, но опасный мир наркотрафика…
Перевод: Любительский одноголосый [Andi]
Субтитры: Отсутствуют

Дата мировой премьеры: 16 марта 2014
Продолжительность: 01:49:36
Качество видео: HDRip [profile-LQ]
Видеокодек: XviD
Битрейт видео: ~755 Кбит/с
Размер кадра: 640х352
Аудиокодек: AC3 2 ch
Битрейт аудио: 128 Кбит/с

MediaInfo:

Общее
Полное имя : C:\NNM\Малыш-каннабис\Malysh 2014 HDRip 700.avi
Формат : AVI
Формат/Информация : Audio Video Interleave
Размер файла : 700 Мбайт
Продолжительность : 1 ч. 49 м.
Общий поток : 892 Кбит/сек
Программа кодирования : VirtualDubMod 1.5.10.2 (build 2540/release)
Библиотека кодирования : VirtualDubMod build 2540/release
Видео
Идентификатор : 0
Формат : MPEG-4 Visual
Профиль формата : Advanced Simple@L5
Параметр BVOP формата : 4
Параметр QPel формата : Нет
Параметр GMC формата : Без точки перехода
Параметр матрицы формата : Default (H.263)
Идентификатор кодека : XVID
Идентификатор кодека/Подсказка : XviD
Продолжительность : 1 ч. 49 м.
Битрейт : 755 Кбит/сек
Ширина : 640 пикселей
Высота : 352 пикселя
Соотношение сторон : 16:9
Частота кадров : 23,976 кадра/сек
Цветовое пространство : YUV
Субдискретизация насыщенности : 4:2:0
Битовая глубина : 8 бит
Тип развёртки : Прогрессивная
Метод сжатия : С потерями
Бит/(Пиксели*Кадры) : 0.140
Размер потока : 592 Мбайт (85%)
Библиотека кодирования : XviD 64
Аудио
Идентификатор : 1
Формат : AC-3
Формат/Информация : Audio Coding 3
Расширение режима : CM (complete main)
Идентификатор кодека : 2000
Продолжительность : 1 ч. 49 м.
Вид битрейта : Постоянный
Битрейт : 128 Кбит/сек
Каналы : 2 канала
Расположение каналов : Front: L R
Частота : 48,0 КГц
Битовая глубина : 16 бит
Метод сжатия : С потерями
Размер потока : 100 Мбайт (14%)
Выравнивание : Разделение по промежуткам
Продолжительность промежутка : 42 мс. (1,00 видеокадр)
Время предзагрузки промежутка : 500 мс.
Скриншоты:
Время раздачи: Круглосуточно до 10 скачавших

[Цитировать]



Показать сообщения:    

Текущее время: 11-Дек 01:25

Часовой пояс: UTC + 3


Вы не можете начинать темы
Вы не можете отвечать на сообщения
Вы не можете редактировать свои сообщения
Вы не можете удалять свои сообщения
Вы не можете голосовать в опросах
Вы не можете прикреплять файлы к сообщениям
Вы не можете скачивать файлы

!ВНИМАНИЕ!
Сайт не предоставляет электронные версии произведений, а занимается лишь коллекционированием и каталогизацией ссылок, присылаемых и публикуемых на форуме нашими читателями. Если вы являетесь правообладателем какого-либо представленного материала и не желаете, чтобы ссылка на него находилась в нашем каталоге, свяжитесь с нами, и мы незамедлительно удалим ее. Файлы для обмена на трекере предоставлены пользователями сайта, и администрация не несет ответственности за их содержание. Просьба не заливать файлы, защищенные авторскими правами, а также файлы нелегального содержания!