[ Сегодня идет свободное скачивание без начисления Download ]


Статистика раздачи
Нет
 
   
 
Top  
 
 
-Ной / Noah (2014) BDRip
«Конец — это только начало»
- Год выпуска: 2014
Производство: США / Paramount Pictures
Жанр: Драма, приключения, фэнтези
Описание фильма:
Приключенческий блокбастер по мотивам библейской истории. Ной, мучимый видениями о конце света, пытается вразумить людей, живущих во грехе. Но вместо того чтобы раскаяться, они изгоняют его, и семья провидца, чей голос не услышали, отправляется скитаться по пустыне. Наконец герой встречает на своем пути шестируких падших ангелов — Наблюдателей — и уговаривает их помочь ему построить ковчег.
Режиссер: Даррен Аронофски / Darren Aronofsky
Продюсер: Даррен Аронофски, Скотт Франклин, Арнон Милчэн
Актеры: Рассел Кроу, Дженнифер Коннелли, Рэй Уинстон, Энтони Хопкинс, Эмма Уотсон, Логан Лерман, Дуглас Бут, Ник Нолти, Марк Марголис, Кевин Дюран
Язык: Русский, английский
Перевод: Дублированный, Одноголосый закадровый (любительский)
Вид субтитров: Вшитые отключаемые
Язык субтитров: Русский, английский (full, SDH, SDH-colored)

Дата мировой премьеры: 10 марта 2014
Дата российской премьеры: 27 марта 2014, «Централ Партнершип»
Дата выхода DVD релиза: 29 июля 2014, «Новый Диск»
Дата выхода Blu-Ray релиза: 29 июля 2014, «Новый Диск»
Рейтинг MPAA: PG-13
Возраст: 12+
Продолжительность: 02:17:53
Качество видео: BDRip [CHD]
Видео: MPEG-4 AVC/H.264, 1920x1040 (1.85:1), ~12500 kbps, 0.261 bit/pixel, 23.976 fps
Аудио 1: AC3 2.0, 384 kbps, 48 kHz, 16-bit [Русский - дублированный «Line»]
Аудио 2: DTS 5.1, 1536 kbps, 48 kHz, 24-bit [Русский - одноголосый закадровый «Д. Есарев»]
Аудио 3: AC3 5.1, 448 kbps, 48 kHz, 16-bit [Русский - одноголосый закадровый «lord666»]
Аудио 4: DTS 5.1, 1536 kbps, 48 kHz, 24-bit [Русский - дублированный «Центральный канал с line»] - отдельным файлом
Аудио 5: DTS 5.1, 1536 kbps, 48 kHz, 24-bit [Английский - оригинал]

x264 log

x264 [info]: frame I:1585 Avg QP:16.71 size:385205
x264 [info]: frame P:47197 Avg QP:19.07 size:105839
x264 [info]: frame B:149575 Avg QP:21.51 size: 48703

MediaInfo

Полное имя                               : D:\Ной-Noah.(2014).BDRip.[1080p].mkv
Формат                                   : Matroska
Версия формата                           : Version 2
Размер файла                             : 15,7 Гбайт
Продолжительность                        : 2 ч. 17 м.
Общий поток                              : 16,3 Мбит/сек
Название фильма                          : Noah (2014)
Дата кодирования                         : UTC 2014-07-08 20:53:42
Программа кодирования                    : mkvmerge v5.7.0 ('The Whirlwind') built on Aug  7 2012 14:11:40
Библиотека кодирования                   : libebml v1.2.3 + libmatroska v1.3.0
Attachment                               : Yes
Видео
Идентификатор                            : 1
Формат                                   : AVC
Формат/Информация                        : Advanced Video Codec
Профиль формата                          : [url=mailto:High@L4.1]High@L4.1[/url]
Параметр CABAC формата                   : Да
Параметр ReFrames формата                : 4 кадра
Идентификатор кодека                     : V_MPEG4/ISO/AVC
Продолжительность                        : 2 ч. 17 м.
Битрейт                                  : 12,5 Мбит/сек
Ширина                                   : 1920 пикселей
Высота                                   : 1040 пикселей
Соотношение сторон                       : 1,85:1
Режим частоты кадров                     : Постоянный
Частота кадров                           : 23,976 кадра/сек
Цветовое пространство                    : YUV
Субдискретизация насыщенности            : 4:2:0
Битовая глубина                          : 8 бит
Тип развёртки                            : Прогрессивная
Бит/(Пиксели*Кадры)                      : 0.261
Размер потока                            : 11,7 Гбайт (74%)
Заголовок                                : Ной-Noah.(2014).BDRip.[1080p]
Библиотека кодирования                   : x264 core 142 r2431 ac76440
Настройки программы                      : cabac=1 / ref=4 / deblock=1:-3:-3 / analyse=0x3:0x113 / me=umh / subme=10 / psy=1 / psy_rd=1.05:0.10 / mixed_ref=1 / me_range=32 / chroma_me=1 / trellis=2 / 8x8dct=1 / cqm=0 / deadzone=21,11 / fast_pskip=0 / chroma_qp_offset=-2 / threads=18 / lookahead_threads=1 / sliced_threads=0 / nr=0 / decimate=1 / interlaced=0 / bluray_compat=0 / constrained_intra=0 / bframes=6 / b_pyramid=2 / b_adapt=2 / b_bias=0 / direct=3 / weightb=1 / open_gop=0 / weightp=2 / keyint=250 / keyint_min=23 / scenecut=40 / intra_refresh=0 / rc=2pass / mbtree=0 / bitrate=12500 / ratetol=1.0 / qcomp=0.70 / qpmin=0 / qpmax=69 / qpstep=4 / cplxblur=20.0 / qblur=0.5 / ip_ratio=1.40 / pb_ratio=1.30 / aq=2:0.80
Язык                                     : English
Default                                  : Да
Forced                                   : Нет
Аудио #1
Идентификатор                            : 2
Формат                                   : AC-3
Формат/Информация                        : Audio Coding 3
Расширение режима                        : CM (complete main)
Параметр Endianness формата              : Big
Идентификатор кодека                     : A_AC3
Продолжительность                        : 2 ч. 17 м.
Вид битрейта                             : Постоянный
Битрейт                                  : 384 Кбит/сек
Каналы                                   : 2 канала
Расположение каналов                     : Front: L R
Частота                                  : 48,0 КГц
Битовая глубина                          : 16 бит
Метод сжатия                             : С потерями
Размер потока                            : 379 Мбайт (2%)
Заголовок                                : AC3 2.0 / 384 kbps / Dub
Язык                                     : Russian
Default                                  : Да
Forced                                   : Нет
Аудио #2
Идентификатор                            : 3
Формат                                   : DTS
Формат/Информация                        : Digital Theater Systems
Идентификатор кодека                     : A_DTS
Продолжительность                        : 2 ч. 17 м.
Вид битрейта                             : Постоянный
Битрейт                                  : 1510 Кбит/сек
Каналы                                   : 6 каналов
Расположение каналов                     : Front: L C R, Side: L R, LFE
Частота                                  : 48,0 КГц
Битовая глубина                          : 24 бит
Метод сжатия                             : С потерями
Размер потока                            : 1,45 Гбайт (9%)
Заголовок                                : DTS 5.1 / 1536 kbps / VO (Д. Есарев)
Язык                                     : Russian
Default                                  : Нет
Forced                                   : Нет
Аудио #3
Идентификатор                            : 4
Формат                                   : AC-3
Формат/Информация                        : Audio Coding 3
Расширение режима                        : CM (complete main)
Параметр Endianness формата              : Big
Идентификатор кодека                     : A_AC3
Продолжительность                        : 2 ч. 17 м.
Вид битрейта                             : Постоянный
Битрейт                                  : 448 Кбит/сек
Каналы                                   : 6 каналов
Расположение каналов                     : Front: L C R, Side: L R, LFE
Частота                                  : 48,0 КГц
Битовая глубина                          : 16 бит
Метод сжатия                             : С потерями
Размер потока                            : 442 Мбайт (3%)
Заголовок                                : AC3 5.1 / 448 kbps / VO (lord666)
Язык                                     : Russian
Default                                  : Нет
Forced                                   : Нет
Аудио #4
Идентификатор                            : 5
Формат                                   : DTS
Формат/Информация                        : Digital Theater Systems
Идентификатор кодека                     : A_DTS
Продолжительность                        : 2 ч. 17 м.
Вид битрейта                             : Постоянный
Битрейт                                  : 1510 Кбит/сек
Каналы                                   : 6 каналов
Расположение каналов                     : Front: L C R, Side: L R, LFE
Частота                                  : 48,0 КГц
Битовая глубина                          : 24 бит
Метод сжатия                             : С потерями
Размер потока                            : 1,45 Гбайт (9%)
Заголовок                                : DTS 5.1 / 1536 kbps / Original
Язык                                     : English
Default                                  : Нет
Forced                                   : Нет
Текст #1
Идентификатор                            : 6
Формат                                   : UTF-8
Идентификатор кодека                     : S_TEXT/UTF8
Идентификатор кодека/Информация          : UTF-8 Plain Text
Заголовок                                : Full (notabenoid)
Язык                                     : Russian
Default                                  : Нет
Forced                                   : Нет
Текст #2
Идентификатор                            : 7
Формат                                   : UTF-8
Идентификатор кодека                     : S_TEXT/UTF8
Идентификатор кодека/Информация          : UTF-8 Plain Text
Заголовок                                : Full
Язык                                     : English
Default                                  : Нет
Forced                                   : Нет
Текст #3
Идентификатор                            : 8
Формат                                   : UTF-8
Идентификатор кодека                     : S_TEXT/UTF8
Идентификатор кодека/Информация          : UTF-8 Plain Text
Заголовок                                : SDH
Язык                                     : English
Default                                  : Нет
Forced                                   : Нет
Текст #4
Идентификатор                            : 9
Формат                                   : UTF-8
Идентификатор кодека                     : S_TEXT/UTF8
Идентификатор кодека/Информация          : UTF-8 Plain Text
Заголовок                                : SDH (Colored)
Язык                                     : English
Default                                  : Нет
Forced                                   : Нет
Меню
00:00:00.000                             : en:00:00:00.000
00:04:48.955                             : en:00:04:48.955
00:08:37.267                             : en:00:08:37.267
00:12:23.034                             : en:00:12:23.034
00:18:43.080                             : en:00:18:43.080
00:23:25.487                             : en:00:23:25.487
00:32:06.424                             : en:00:32:06.424
00:37:27.203                             : en:00:37:27.203
00:42:50.735                             : en:00:42:50.735
00:54:35.647                             : en:00:54:35.647
01:01:14.963                             : en:01:01:14.963
01:03:28.596                             : en:01:03:28.596
01:09:33.795                             : en:01:09:33.795
01:19:18.337                             : en:01:19:18.337
01:21:56.537                             : en:01:21:56.537
01:29:12.347                             : en:01:29:12.347
01:34:02.053                             : en:01:34:02.053
01:40:27.355                             : en:01:40:27.355
01:49:23.098                             : en:01:49:23.098
01:55:57.826                             : en:01:55:57.826
02:00:37.230                             : en:02:00:37.230
02:11:32.676                             : en:02:11:32.676
Полное имя                               : D:\Ной-Noah.(2014).BDRip.[1080p].Rus.dts
Формат                                   : DTS
Формат/Информация                        : Digital Theater Systems
Размер файла                             : 1,45 Гбайт
Продолжительность                        : 2 ч. 17 м.
Режим общего битрейта                    : Постоянный
Общий поток                              : 1510 Кбит/сек
Аудио
Формат                                   : DTS
Формат/Информация                        : Digital Theater Systems
Продолжительность                        : 2 ч. 17 м.
Вид битрейта                             : Постоянный
Битрейт                                  : 1510 Кбит/сек
Каналы                                   : 6 каналов
Расположение каналов                     : Front: L C R, Side: L R, LFE
Частота                                  : 48,0 КГц
Битовая глубина                          : 24 бит
Метод сжатия                             : С потерями
Размер потока                            : 1,45 Гбайт (100%)
Скриншоты:

Время раздачи: 24/7 (до 10 скачавших)

[Цитировать]



Показать сообщения:    

Текущее время: 11-Дек 11:08

Часовой пояс: UTC + 3


Вы не можете начинать темы
Вы не можете отвечать на сообщения
Вы не можете редактировать свои сообщения
Вы не можете удалять свои сообщения
Вы не можете голосовать в опросах
Вы не можете прикреплять файлы к сообщениям
Вы не можете скачивать файлы

!ВНИМАНИЕ!
Сайт не предоставляет электронные версии произведений, а занимается лишь коллекционированием и каталогизацией ссылок, присылаемых и публикуемых на форуме нашими читателями. Если вы являетесь правообладателем какого-либо представленного материала и не желаете, чтобы ссылка на него находилась в нашем каталоге, свяжитесь с нами, и мы незамедлительно удалим ее. Файлы для обмена на трекере предоставлены пользователями сайта, и администрация не несет ответственности за их содержание. Просьба не заливать файлы, защищенные авторскими правами, а также файлы нелегального содержания!