[ Сегодня идет свободное скачивание без начисления Download ]


Статистика раздачи
Нет
 
   
 
Top  
 
 
-Ной / Noah (2014) BDRemux
«Конец — это только начало»
- Год выпуска: 2014
Производство: США / Paramount Pictures
Жанр: Драма, приключения, фэнтези
Описание фильма:
Приключенческий блокбастер по мотивам библейской истории. Ной, мучимый видениями о конце света, пытается вразумить людей, живущих во грехе. Но вместо того чтобы раскаяться, они изгоняют его, и семья провидца, чей голос не услышали, отправляется скитаться по пустыне. Наконец герой встречает на своем пути шестируких падших ангелов — Наблюдателей — и уговаривает их помочь ему построить ковчег.
Режиссер: Даррен Аронофски / Darren Aronofsky
Продюсер: Даррен Аронофски, Скотт Франклин, Арнон Милчэн
Актеры: Рассел Кроу, Дженнифер Коннелли, Рэй Уинстон, Энтони Хопкинс, Эмма Уотсон, Логан Лерман, Дуглас Бут, Ник Нолти, Марк Марголис, Кевин Дюран
Язык: Русский, английский
Перевод: Дублированный, Одноголосый закадровый (любительский)
Вид субтитров: Вшитые отключаемые
Язык субтитров: Русский, английский (full, SDH, SDH-colored)

Дата мировой премьеры: 10 марта 2014
Дата российской премьеры: 27 марта 2014, «Централ Партнершип»
Дата выхода DVD релиза: 29 июля 2014, «Новый Диск»
Дата выхода Blu-Ray релиза: 29 июля 2014, «Новый Диск»
Рейтинг MPAA: PG-13
Возраст: 12+
Продолжительность: 02:17:53
Качество видео: BDRemux
Видео: MPEG-4 AVC/H.264, 1920x1080 (1.85:1), ~27,2 mbps, 0.547 bit/pixel, 23.976 fps
Аудио 1: AC3 2.0, 384 kbps, 48 kHz, 16-bit [Русский - дублированный «Line»]
Аудио 2: DTS 5.1, 1536 kbps, 48 kHz, 24-bit [Русский - одноголосый закадровый «Д. Есарев»]
Аудио 3: AC3 5.1, 448 kbps, 48 kHz, 16-bit [Русский - одноголосый закадровый «lord666»]
Аудио 4: DTS-HD MA 7.1, 5149 kbps, 48 kHz, 24-bit [Английский - оригинал]

Отчёт MediaInfo

Полное имя : D:\Ной-Noah.(2014).BDRemux.[1080p].mkv
Формат : Matroska
Версия формата : Version 2
Размер файла : 30,6 Гбайт
Продолжительность : 2 ч. 17 м.
Режим общего битрейта : Переменный
Общий поток : 31,8 Мбит/сек
Название фильма : Noah (2014) / Lelya_K for NNM-Club
Дата кодирования : UTC 2014-07-08 22:50:34
Программа кодирования : mkvmerge v5.7.0 ('The Whirlwind') built on Aug 7 2012 14:11:40
Библиотека кодирования : libebml v1.2.3 + libmatroska v1.3.0
Attachment : Yes
Видео
Идентификатор : 1
Формат : AVC
Формат/Информация : Advanced Video Codec
Профиль формата : [email protected]
Параметр CABAC формата : Да
Параметр ReFrames формата : 4 кадра
Идентификатор кодека : V_MPEG4/ISO/AVC
Продолжительность : 2 ч. 17 м.
Вид битрейта : Переменный
Битрейт : 27,2 Мбит/сек
Максимальный битрейт : 33,0 Мбит/сек
Ширина : 1920 пикселей
Высота : 1080 пикселей
Соотношение сторон : 16:9
Режим частоты кадров : Постоянный
Частота кадров : 23,976 кадра/сек
Цветовое пространство : YUV
Субдискретизация насыщенности : 4:2:0
Битовая глубина : 8 бит
Тип развёртки : Прогрессивная
Бит/(Пиксели*Кадры) : 0.547
Размер потока : 26,2 Гбайт (86%)
Заголовок : Ной-Noah.(2014).BDRemux.[1080p]
Язык : English
Default : Да
Forced : Нет
Аудио #1
Идентификатор : 2
Формат : AC-3
Формат/Информация : Audio Coding 3
Расширение режима : CM (complete main)
Параметр Endianness формата : Big
Идентификатор кодека : A_AC3
Продолжительность : 2 ч. 17 м.
Вид битрейта : Постоянный
Битрейт : 384 Кбит/сек
Каналы : 2 канала
Расположение каналов : Front: L R
Частота : 48,0 КГц
Битовая глубина : 16 бит
Метод сжатия : С потерями
Размер потока : 379 Мбайт (1%)
Заголовок : AC3 2.0 / 384 kbps / Dub
Язык : Russian
Default : Да
Forced : Нет
Аудио #2
Идентификатор : 3
Формат : DTS
Формат/Информация : Digital Theater Systems
Идентификатор кодека : A_DTS
Продолжительность : 2 ч. 17 м.
Вид битрейта : Постоянный
Битрейт : 1510 Кбит/сек
Каналы : 6 каналов
Расположение каналов : Front: L C R, Side: L R, LFE
Частота : 48,0 КГц
Битовая глубина : 24 бит
Метод сжатия : С потерями
Размер потока : 1,45 Гбайт (5%)
Заголовок : DTS 5.1 / 1536 kbps / VO (Д. Есарев)
Язык : Russian
Default : Нет
Forced : Нет
Аудио #3
Идентификатор : 4
Формат : AC-3
Формат/Информация : Audio Coding 3
Расширение режима : CM (complete main)
Параметр Endianness формата : Big
Идентификатор кодека : A_AC3
Продолжительность : 2 ч. 17 м.
Вид битрейта : Постоянный
Битрейт : 448 Кбит/сек
Каналы : 6 каналов
Расположение каналов : Front: L C R, Side: L R, LFE
Частота : 48,0 КГц
Битовая глубина : 16 бит
Метод сжатия : С потерями
Размер потока : 442 Мбайт (1%)
Заголовок : AC3 5.1 / 448 kbps / VO (lord666)
Язык : Russian
Default : Нет
Forced : Нет
Аудио #4
Идентификатор : 5
Формат : DTS
Формат/Информация : Digital Theater Systems
Профиль формата : MA / Core
Идентификатор кодека : A_DTS
Продолжительность : 2 ч. 17 м.
Вид битрейта : Переменный
Битрейт : 1606 Кбит/сек / 1510 Кбит/сек
Каналы : 8 каналов / 6 каналов
Расположение каналов : Front: L C R, Side: L R, Back: L R, LFE / Front: L C R, Side: L R, LFE
Частота : 48,0 КГц
Битовая глубина : 24 бит
Метод сжатия : Без потерь / Lossy
Заголовок : DTS-HD MA 7.1 / 5149 kbps / Original
Язык : English
Default : Нет
Forced : Нет
Текст #1
Идентификатор : 6
Формат : UTF-8
Идентификатор кодека : S_TEXT/UTF8
Идентификатор кодека/Информация : UTF-8 Plain Text
Заголовок : Full (notabenoid)
Язык : Russian
Default : Нет
Forced : Нет
Текст #2
Идентификатор : 7
Формат : UTF-8
Идентификатор кодека : S_TEXT/UTF8
Идентификатор кодека/Информация : UTF-8 Plain Text
Заголовок : Full
Язык : English
Default : Нет
Forced : Нет
Текст #3
Идентификатор : 8
Формат : UTF-8
Идентификатор кодека : S_TEXT/UTF8
Идентификатор кодека/Информация : UTF-8 Plain Text
Заголовок : SDH
Язык : English
Default : Нет
Forced : Нет
Текст #4
Идентификатор : 9
Формат : UTF-8
Идентификатор кодека : S_TEXT/UTF8
Идентификатор кодека/Информация : UTF-8 Plain Text
Заголовок : SDH (Colored)
Язык : English
Default : Нет
Forced : Нет
Меню
00:00:00.000 : en:Chapter 1
00:04:48.955 : en:Chapter 2
00:08:37.266 : en:Chapter 3
00:12:23.033 : en:Chapter 4
00:18:43.080 : en:Chapter 5
00:23:25.487 : en:Chapter 6
00:32:06.424 : en:Chapter 7
00:37:27.203 : en:Chapter 8
00:42:50.734 : en:Chapter 9
00:54:35.647 : en:Chapter 10
01:01:14.962 : en:Chapter 11
01:03:28.596 : en:Chapter 12
01:09:33.794 : en:Chapter 13
01:19:18.336 : en:Chapter 14
01:21:56.536 : en:Chapter 15
01:29:12.347 : en:Chapter 16
01:34:02.053 : en:Chapter 17
01:40:27.354 : en:Chapter 18
01:49:23.098 : en:Chapter 19
01:55:57.825 : en:Chapter 20
02:00:37.230 : en:Chapter 21
02:11:32.676 : en:Chapter 22
Скриншоты:

Время раздачи: 24/7 (до 10 скачавших)

[Цитировать]



Показать сообщения:    

Текущее время: 06-Дек 15:16

Часовой пояс: UTC + 3


Вы не можете начинать темы
Вы не можете отвечать на сообщения
Вы не можете редактировать свои сообщения
Вы не можете удалять свои сообщения
Вы не можете голосовать в опросах
Вы не можете прикреплять файлы к сообщениям
Вы не можете скачивать файлы

!ВНИМАНИЕ!
Сайт не предоставляет электронные версии произведений, а занимается лишь коллекционированием и каталогизацией ссылок, присылаемых и публикуемых на форуме нашими читателями. Если вы являетесь правообладателем какого-либо представленного материала и не желаете, чтобы ссылка на него находилась в нашем каталоге, свяжитесь с нами, и мы незамедлительно удалим ее. Файлы для обмена на трекере предоставлены пользователями сайта, и администрация не несет ответственности за их содержание. Просьба не заливать файлы, защищенные авторскими правами, а также файлы нелегального содержания!