[ Сегодня идет свободное скачивание без начисления Download ]


Статистика раздачи
Нет
 
   
 
Top  
 
 
-Гангста Love / Rob the Mob (2014) BDRip- Год выпуска: 2014
Производство: США - The Exchange
Жанр: Драма, криминал
Перевод: Дублированный |лицензия|
Субтитры: Вшитые отключаемые
Язык субтитров: Английский
Режиссер: Рэймонд Де Фелитта / Raymond De Felitta
Продюсер: Уильям Тейтлер, Линн Эппелл, Ричард Эткинсон
Актеры: Майкл Питт, Нина Арианда, Энди Гарсиа, Рэй Романо, Гриффин Данн, Майкл Рисполи, Юл Васкес, Фрэнк Уэйли, Брайан Тарантина, Аида Туртурро
Описание фильма:
Парочка молодых влюбленных, мечтая скопить деньги на свадьбу, решает совершить серию дерзких ограблений клубов, где собираются мафиози. Их план прост — чтобы они ни натворили, мафия не будет жаловаться в полицию. Местные «братаны» не могут поверить своим глазам, когда их обчищают до нитки какие-то «сопляки». Больше того, случайно, у них похищают важную улику, которой очень интересуется ФБР. Теперь за налетчиками начинается настоящая охота…

Дата мировой премьеры: 15 марта 2014
Дата российской премьеры: 10 апреля 2014, «Наше Кино»
Дата выхода DVD релиза: 3 июня 2014, «CD Land»
Продолжительность: 01:44:11
Качество видео: BDRip 1080p
Видео: MPEG-4 AVC/H.264, ~11.5 Мбит/с, 1920x1080, 23.976 кадр/с
Аудио #1: Русский: AC3, 5.1, 448 Кбит/с, 48 kHz, 16 bit
Аудио #2: Английский: AC3, 5.1, 640 Кбит/с, 48 kHz, 16 bit
Сохранены оригинальные чаптеры как на Blu-Ray

MediaInfo:

Общее
Уникальный идентификатор : 228307540830981369903350686809182726992 (0xABC26ED542668BEC938C9323FC1C6B50)
Полное имя : D:\Video\Rob.the.Mob.2014.x264.BDRip.1080p.mkv
Формат : Matroska
Версия формата : Version 2
Размер файла : 9,17 Гбайт
Продолжительность : 1 ч. 44 м.
Общий поток : 12,6 Мбит/сек
Дата кодирования : UTC 2014-07-08 15:34:36
Программа кодирования : mkvmerge v5.8.0 ('No Sleep / Pillow') built on Sep 2 2012 15:37:04
Библиотека кодирования : libebml v1.2.3 + libmatroska v1.3.0
Видео
Идентификатор : 1
Формат : AVC
Формат/Информация : Advanced Video Codec
Профиль формата : High@L4.1
Параметр CABAC формата : Да
Параметр ReFrames формата : 4 кадра
Идентификатор кодека : V_MPEG4/ISO/AVC
Продолжительность : 1 ч. 44 м.
Битрейт : 11,5 Мбит/сек
Ширина : 1920 пикселей
Высота : 1080 пикселей
Соотношение сторон : 16:9
Режим частоты кадров : Постоянный
Частота кадров : 23,976 кадра/сек
Цветовое пространство : YUV
Субдискретизация насыщенности : 4:2:0
Битовая глубина : 8 бит
Тип развёртки : Прогрессивная
Бит/(Пиксели*Кадры) : 0.232
Размер потока : 8,20 Гбайт (89%)
Библиотека кодирования : x264 core 142 r2431 ac76440
Настройки программы : cabac=1 / ref=4 / deblock=1:-3:-3 / analyse=0x3:0x113 / me=umh / subme=11 / psy=1 / psy_rd=1.05:0.10 / mixed_ref=1 / me_range=48 / chroma_me=1 / trellis=2 / 8x8dct=1 / cqm=0 / deadzone=21,11 / fast_pskip=0 / chroma_qp_offset=-2 / threads=12 / lookahead_threads=1 / sliced_threads=0 / nr=0 / decimate=1 / interlaced=0 / bluray_compat=0 / constrained_intra=0 / bframes=6 / b_pyramid=2 / b_adapt=2 / b_bias=0 / direct=3 / weightb=1 / open_gop=0 / weightp=2 / keyint=250 / keyint_min=23 / scenecut=40 / intra_refresh=0 / rc_lookahead=40 / rc=2pass / mbtree=0 / bitrate=11519 / ratetol=2.0 / qcomp=0.70 / qpmin=0 / qpmax=69 / qpstep=4 / cplxblur=20.0 / qblur=0.5 / vbv_maxrate=40000 / vbv_bufsize=30000 / nal_hrd=none / filler=0 / ip_ratio=1.40 / pb_ratio=1.30 / aq=2:1.00
Язык : English
Default : Да
Forced : Да
Аудио #1
Идентификатор : 2
Формат : AC-3
Формат/Информация : Audio Coding 3
Расширение режима : CM (complete main)
Параметр Endianness формата : Big
Идентификатор кодека : A_AC3
Продолжительность : 1 ч. 44 м.
Вид битрейта : Постоянный
Битрейт : 448 Кбит/сек
Каналы : 6 каналов
Расположение каналов : Front: L C R, Side: L R, LFE
Частота : 48,0 КГц
Битовая глубина : 16 бит
Метод сжатия : С потерями
Размер потока : 334 Мбайт (4%)
Язык : Russian
Default : Да
Forced : Да
Аудио #2
Идентификатор : 3
Формат : AC-3
Формат/Информация : Audio Coding 3
Расширение режима : CM (complete main)
Параметр Endianness формата : Big
Идентификатор кодека : A_AC3
Продолжительность : 1 ч. 44 м.
Вид битрейта : Постоянный
Битрейт : 640 Кбит/сек
Каналы : 6 каналов
Расположение каналов : Front: L C R, Side: L R, LFE
Частота : 48,0 КГц
Битовая глубина : 16 бит
Метод сжатия : С потерями
Размер потока : 477 Мбайт (5%)
Язык : English
Default : Нет
Forced : Нет
Текст
Идентификатор : 4
Формат : UTF-8
Идентификатор кодека : S_TEXT/UTF8
Идентификатор кодека/Информация : UTF-8 Plain Text
Язык : English
Default : Нет
Forced : Нет
Меню
00:00:00.000 : en:00:00:00.000
00:08:36.850 : en:00:08:36.850
00:16:10.887 : en:00:16:10.887
00:25:03.252 : en:00:25:03.252
00:32:48.341 : en:00:32:48.341
00:42:56.699 : en:00:42:56.699
00:50:36.700 : en:00:50:36.700
00:58:07.901 : en:00:58:07.901
01:07:19.869 : en:01:07:19.869
01:15:25.521 : en:01:15:25.521
01:23:28.587 : en:01:23:28.587
01:39:38.514 : en:01:39:38.514

Рецензия:

История «Бонни и Клайда» покорила многие сердца, и те двое влюбленных героев из фильма «Гангста Love» исключением не стали. Называют себя современниками знаменитых грабителей, так их цитируют публицисты, и даже так называли их гангстеры в фильме. Но посыла к сюжету истории прошлого века нет, наши герои просто-напросто влюбленные и сумасшедшие.
Режиссер Рэймонд Де Филитта решил подтянуть к фильму еще несколько второстепенных сюжетных линий — это «семейная» иерархия гангстеров и беспощадная война федералов. А двое влюбленных — просто застряли между двумя мирами. К удивлению, весь звездный актерский состав фильма «Ограбление казино» не впечатлил, как это сделали малоизвестные актеры фильма «Гангста Love».
Здесь нет провисаний в сюжете в стиле «додумайтесь сами», или «тут сейчас будет что-то умное, но вы не поймете». Простота сюжета подарила зрителю в полной мере насладиться неплохими режиссерскими и актерскими навыками присутствующим в данной картине. Ограбив цветочную лавку, парень и девушка отправляются в тюрьму, после выхода первые два чека от работодателя — полтора сотни долларов на двоих.
Узнав о том, что все сходки гангстеров проходят без оружия, решили обчистить ребят богатых на грязные деньги. Все бы ничего, пока им в руки не попался список той самой семейной иерархии преступности в городе, за которую уж точно им никто не простит. Немного романтики, немного комедии абсолютно не испортили данный фильм, главное, что воспринять несерьезно нельзя его, поэтому поклонникам криминальных драм, а именно эти два жанра являются основными, смотреть рекомендуется.
7 из 10
Скриншоты: Время раздачи: с 10:00 до 20:00 (GMT+2) - до 10 скачавшихНе забываем говорить

[Цитировать]



Показать сообщения:    

Текущее время: 11-Дек 13:03

Часовой пояс: UTC + 3


Вы не можете начинать темы
Вы не можете отвечать на сообщения
Вы не можете редактировать свои сообщения
Вы не можете удалять свои сообщения
Вы не можете голосовать в опросах
Вы не можете прикреплять файлы к сообщениям
Вы не можете скачивать файлы

!ВНИМАНИЕ!
Сайт не предоставляет электронные версии произведений, а занимается лишь коллекционированием и каталогизацией ссылок, присылаемых и публикуемых на форуме нашими читателями. Если вы являетесь правообладателем какого-либо представленного материала и не желаете, чтобы ссылка на него находилась в нашем каталоге, свяжитесь с нами, и мы незамедлительно удалим ее. Файлы для обмена на трекере предоставлены пользователями сайта, и администрация не несет ответственности за их содержание. Просьба не заливать файлы, защищенные авторскими правами, а также файлы нелегального содержания!