[ Сегодня идет свободное скачивание без начисления Download ]


Статистика раздачи
Нет
 
   
 
Top  
 
 
-Малыш-каннабис / Kid Cannabis (2014) BDRip- Год выпуска: 2014
Производство: США, ARM Entertainment (II)
Жанр: Драма, криминал
Режиссер: Джон Стокуэлл
Продюсер: Майкл Бекер, Гордон Бижелонич, Кори Лардж
Актеры: Джонатан Даниэль Браун, Кенни Вормолд, Аарон Йу, Рон Перлман, Джон К. МакГинли, Кори Лардж, Брайс Ходжсон, Алекс Арсено, Джеффри Баллард, Люк Дженнингс
Описание фильма:
Нэйт — исключенный из школы юноша, растущий с матерью-одиночкой и младшим братом. Поняв, что он больше не может выносить бедность и хочет лучшей жизни для семьи, Нэйт начинает раздумывать над тем, как разбогатеть на контрабанде горячо любимой им марихуаны. Как-то клиент, которому Нэйт доставляет пиццу, подсказывает ему, что Канада — выгодное место для совершения такого рода контрабанды. Тогда Нэйт и Тофер — его более зрелый друг, также обожающий марихуану — отправляются туда «на разведку», с чего и начинается их путь к богатству через многообещающий, но опасный мир наркотрафика…
Перевод: Любительский одноголосый [Andi]
Субтитры: Отсутствуют

Дата мировой премьеры: 16 марта 2014
Продолжительность: 01:49:36
Качество видео: BDRip [Profile LQ]
Видеокодек: MPEG-4 AVC
Битрейт видео: ~4195 Кбит/с
Размер кадра: 1280x688
Аудио 1: MP3, 2 ch, 128 Кбит/с - русский
Аудио 2: DTS, 6 ch, 1510 Кбит/с - английский

MediaInfo:

Общее
Уникальный идентификатор : 230309614163504560810900756624520740726 (0xAD4404AB5CAB293DB359DC8B7A0B7F76)
Полное имя : C:\NNM\Малыш-каннабис\Malysh 2014 BDRip 720p.mkv
Формат : Matroska
Версия формата : Version 4 / Version 2
Размер файла : 4,47 Гбайт
Продолжительность : 1 ч. 49 м.
Общий поток : 5832 Кбит/сек
Программа кодирования : mkvmerge v6.1.0 ('Old Devil') built on Mar 4 2013 09:10:42
Библиотека кодирования : libebml v1.3.0 + libmatroska v1.4.0
Видео
Идентификатор : 1
Формат : AVC
Формат/Информация : Advanced Video Codec
Профиль формата : [email protected]
Параметр CABAC формата : Да
Параметр ReFrames формата : 5 кадров
Идентификатор кодека : V_MPEG4/ISO/AVC
Продолжительность : 1 ч. 49 м.
Битрейт : 4195 Кбит/сек
Ширина : 1280 пикселей
Высота : 688 пикселей
Соотношение сторон : 1,860
Частота кадров : 23,976 кадра/сек
Цветовое пространство : YUV
Субдискретизация насыщенности : 4:2:0
Битовая глубина : 8 бит
Тип развёртки : Прогрессивная
Бит/(Пиксели*Кадры) : 0.199
Размер потока : 3,12 Гбайт (70%)
Библиотека кодирования : x264 core 142 r2431 ac76440
Настройки программы : cabac=1 / ref=5 / deblock=1:0:0 / analyse=0x3:0x133 / me=umh / subme=7 / psy=1 / psy_rd=1.00:0.00 / mixed_ref=1 / me_range=16 / chroma_me=1 / trellis=1 / 8x8dct=1 / cqm=0 / deadzone=21,11 / fast_pskip=0 / chroma_qp_offset=-2 / threads=18 / lookahead_threads=3 / sliced_threads=0 / nr=0 / decimate=1 / interlaced=0 / bluray_compat=0 / constrained_intra=0 / bframes=3 / b_pyramid=2 / b_adapt=1 / b_bias=0 / direct=1 / weightb=1 / open_gop=0 / weightp=2 / keyint=250 / keyint_min=23 / scenecut=40 / intra_refresh=0 / rc_lookahead=40 / rc=2pass / mbtree=1 / bitrate=4195 / ratetol=1.0 / qcomp=0.60 / qpmin=0 / qpmax=69 / qpstep=4 / cplxblur=20.0 / qblur=0.5 / ip_ratio=1.40 / aq=1:1.00
Язык : English
Default : Да
Forced : Нет
Аудио #1
Идентификатор : 2
Формат : MPEG Audio
Версия формата : Version 1
Профиль формата : Layer 3
Режим : Joint stereo
Расширение режима : MS Stereo
Идентификатор кодека : A_MPEG/L3
Идентификатор кодека/Подсказка : MP3
Продолжительность : 1 ч. 49 м.
Вид битрейта : Постоянный
Битрейт : 128 Кбит/сек
Каналы : 2 канала
Частота : 48,0 КГц
Метод сжатия : С потерями
Размер потока : 100 Мбайт (2%)
Язык : Russian
Default : Да
Forced : Нет
Аудио #2
Идентификатор : 3
Формат : DTS
Формат/Информация : Digital Theater Systems
Идентификатор кодека : A_DTS
Продолжительность : 1 ч. 49 м.
Вид битрейта : Постоянный
Битрейт : 1510 Кбит/сек
Каналы : 6 каналов
Расположение каналов : Front: L C R, Side: L R, LFE
Частота : 48,0 КГц
Битовая глубина : 24 бит
Метод сжатия : С потерями
Размер потока : 1,16 Гбайт (26%)
Язык : English
Default : Нет
Forced : Нет
Меню
00:00:00.000 : en:00:00:00.000
00:07:36.581 : en:00:07:36.581
00:14:49.847 : en:00:14:49.847
00:25:55.095 : en:00:25:55.095
00:35:05.687 : en:00:35:05.687
00:42:41.225 : en:00:42:41.225
00:53:19.696 : en:00:53:19.696
01:04:05.383 : en:01:04:05.383
01:14:17.161 : en:01:14:17.161
01:23:17.117 : en:01:23:17.117
01:33:50.291 : en:01:33:50.291
01:45:00.753 : en:01:45:00.753
Скриншоты: Время раздачи: Круглосуточно до 10 скачавших

[Цитировать]



Показать сообщения:    

Текущее время: 06-Дек 22:56

Часовой пояс: UTC + 3


Вы не можете начинать темы
Вы не можете отвечать на сообщения
Вы не можете редактировать свои сообщения
Вы не можете удалять свои сообщения
Вы не можете голосовать в опросах
Вы не можете прикреплять файлы к сообщениям
Вы не можете скачивать файлы

!ВНИМАНИЕ!
Сайт не предоставляет электронные версии произведений, а занимается лишь коллекционированием и каталогизацией ссылок, присылаемых и публикуемых на форуме нашими читателями. Если вы являетесь правообладателем какого-либо представленного материала и не желаете, чтобы ссылка на него находилась в нашем каталоге, свяжитесь с нами, и мы незамедлительно удалим ее. Файлы для обмена на трекере предоставлены пользователями сайта, и администрация не несет ответственности за их содержание. Просьба не заливать файлы, защищенные авторскими правами, а также файлы нелегального содержания!