[ Сегодня идет свободное скачивание без начисления Download ]


Статистика раздачи
Нет
 
   
 
Top  
 
 
-Большое Я / The Big I Am (2010) HDRip- Год выпуска: 2010
Производство: Великобритания | Cinematic Productions, Robert Fucilla Company, TBIA Flix
Жанр: Триллер, Драма, Криминал
Описание фильма:
Жестокая ирония судьбы, за короткое время жулик Микки Скиннер входит в высшую лигу, как глава жестокой банды Лондона, которая занимается сделками связанными с торговлей людьми.
Режиссер: Ник Ауэрбах
Актеры: Лео Грегори, Винсент Риган, Майкл Мэдсен, Роберт Фусилла, Стивен Беркофф, Пол Кэй, Беатрис Розен, МС Харви, Филип Дэвис, Терри Стоун
Продолжительность: 01:26:52
Качество видео: HDRip [H.264]
Перевод: Профессиональный (многоголосый, закадровый)
Автор перевода: Первый ТВЧ
Язык субтитров: Русский, Английский (Forced + Full + SDH)
Вид субтитров: Вшитые, отключаемые

Дата мировой премьеры: 8 апреля 2010 (Великобритания)
Видео кодек: MPEG-4 AVC/H.264
Видео: 1032x544 (1.897), 23,976 fps, ~2015 kbps, 0.150 bit/pixel
Аудио №1: 48 kHz, AC-3, 2 ch, (Front: L, R), ~192 kbps avg | Русский MVO
Аудио №2: 48 kHz, AC-3, 2 ch, (Front: L, R), ~192 kbps avg | Оригинал (английский)
Сэмпл: Скачать

MediaInfo

General
Unique ID                      : 229722263587530047661180954812080126181 (0xACD2E60CD969308F93144D6F7D02F8E5)
Complete name                  : I:\Фильмы\Boljshoe.Ja.2010.HDRip.AVC.mkv
Format                         : Matroska
Format version                 : Version 4 / Version 2
File size                      : 1.49 GiB
Duration                       : 1h 26mn
Overall bit rate               : 2 447 Kbps
Encoded date                   : UTC 2014-07-09 05:41:23
Writing application            : mkvmerge v5.9.0 ('On The Loose') built on Dec 15 2012 16:39:58
Writing library                : libebml v1.3.0 + libmatroska v1.4.0
Video
ID                             : 1
Format                         : AVC
Format/Info                    : Advanced Video Codec
Format profile                 : [url=mailto:High@L4.1]High@L4.1[/url]
Format settings, CABAC         : Yes
Format settings, ReFrames      : 11 frames
Codec ID                       : V_MPEG4/ISO/AVC
Duration                       : 1h 26mn
Bit rate                       : 2 015 Kbps
Width                          : 1 032 pixels
Height                         : 544 pixels
Display aspect ratio           : 1.897
Original display aspect ratio  : 1.905
Frame rate mode                : Constant
Frame rate                     : 23.976 fps
Color space                    : YUV
Chroma subsampling             : 4:2:0
Bit depth                      : 8 bits
Scan type                      : Progressive
Bits/(Pixel*Frame)             : 0.150
Stream size                    : 1.22 GiB (82%)
Title                          : The Big I Am
Language                       : English
Default                        : Yes
Forced                         : No
Audio #1
ID                             : 2
Format                         : AC-3
Format/Info                    : Audio Coding 3
Mode extension                 : CM (complete main)
Format settings, Endianness    : Big
Codec ID                       : A_AC3
Duration                       : 1h 26mn
Bit rate mode                  : Constant
Bit rate                       : 192 Kbps
Channel(s)                     : 2 channels
Channel positions              : Front: L R
Sampling rate                  : 48.0 KHz
Bit depth                      : 16 bits
Compression mode               : Lossy
Delay relative to video        : 23ms
Stream size                    : 119 MiB (8%)
Title                          : MVO | DD 2.0 @ 192 kbps - Первый ТВЧ
Language                       : Russian
Default                        : Yes
Forced                         : Yes
Audio #2
ID                             : 3
Format                         : AC-3
Format/Info                    : Audio Coding 3
Mode extension                 : CM (complete main)
Format settings, Endianness    : Big
Codec ID                       : A_AC3
Duration                       : 1h 26mn
Bit rate mode                  : Constant
Bit rate                       : 192 Kbps
Channel(s)                     : 2 channels
Channel positions              : Front: L R
Sampling rate                  : 48.0 KHz
Bit depth                      : 16 bits
Compression mode               : Lossy
Delay relative to video        : 19ms
Stream size                    : 119 MiB (8%)
Title                          : Original | DD 2.0 @ 192 kbps
Language                       : English
Default                        : No
Forced                         : No
Text #1
ID                             : 4
Format                         : UTF-8
Codec ID                       : S_TEXT/UTF8
Codec ID/Info                  : UTF-8 Plain Text
Language                       : Russian
Default                        : No
Forced                         : No
Text #2
ID                             : 5
Format                         : UTF-8
Codec ID                       : S_TEXT/UTF8
Codec ID/Info                  : UTF-8 Plain Text
Title                          : Forced
Language                       : English
Default                        : No
Forced                         : No
Text #3
ID                             : 6
Format                         : UTF-8
Codec ID                       : S_TEXT/UTF8
Codec ID/Info                  : UTF-8 Plain Text
Title                          : Full
Language                       : English
Default                        : No
Forced                         : No
Text #4
ID                             : 7
Format                         : UTF-8
Codec ID                       : S_TEXT/UTF8
Codec ID/Info                  : UTF-8 Plain Text
Title                          : SDH
Language                       : English
Default                        : No
Forced                         : No
Скриншоты:


Время раздачи: 10:00 - 24:00

[Цитировать]



Показать сообщения:    

Текущее время: 10-Дек 13:49

Часовой пояс: UTC + 3


Вы не можете начинать темы
Вы не можете отвечать на сообщения
Вы не можете редактировать свои сообщения
Вы не можете удалять свои сообщения
Вы не можете голосовать в опросах
Вы не можете прикреплять файлы к сообщениям
Вы не можете скачивать файлы

!ВНИМАНИЕ!
Сайт не предоставляет электронные версии произведений, а занимается лишь коллекционированием и каталогизацией ссылок, присылаемых и публикуемых на форуме нашими читателями. Если вы являетесь правообладателем какого-либо представленного материала и не желаете, чтобы ссылка на него находилась в нашем каталоге, свяжитесь с нами, и мы незамедлительно удалим ее. Файлы для обмена на трекере предоставлены пользователями сайта, и администрация не несет ответственности за их содержание. Просьба не заливать файлы, защищенные авторскими правами, а также файлы нелегального содержания!