[ Сегодня идет свободное скачивание без начисления Download ]


Статистика раздачи
Нет
 
   
 
Top  
 
 
-Принцесса и нищий / Il principe abusivo (2013) HDRip- Год выпуска: 2013
Производство: Италия
Жанр: Комедия
Режиссер: Алессандро Сиани
Продюсер: Марко Кименц, Джованни Стабилини, Риккардо Тоцци
Актеры: Алессандро Сиани, Кристиан Де Сика, Сара Фельбербаум, Серена Аутьери, Марко Мессери, Алан Капелли Гетц, Сальваторе Мистиконе, Нэлло Иорио, Августо Форнари
Описание фильма:
Что делать, если ты принцесса маленького европейского княжества, если твой отец увлечен только эротикой в интернете, а о тебе не пишет пресса, потому что ты занимаешься открытием ветеринарных лечебниц? Правильно! Устроить небольшой скандальчик! Или очень большой скандал! Принцесса по совету дворецкого находит самого никчемного жителя княжества, молодого балбеса Антонио и притворяется, что влюбилась в него! Они гуляют по улицам, ужинают в ресторане, а специально предупрежденные папарацци снимают их! Это скандал! Принцесса выходит замуж за нищего. Принцесса добилась своего, но что теперь делать с Антонио?
Перевод: Профессиональный (многоголосный)
Субтитры: Отсутствуют

Дата мировой премьеры: 14 февраля 2013
Дата Российской премьеры: 26 июня 2014
Продолжительность: 01:41:54
Качество видео: HDRip
Видеокодек: XviD
Битрейт видео: ~1847 Кбит/с
Размер кадра: 720x304
Аудиокодек: AC3, 2 ch
Битрейт аудио: 192 Кбит/с

MediaInfo:

Общее
Полное имя : C:\NNM\Принцесса и нищий\Princessa i nishij 2013 HDRip.avi
Формат : AVI
Формат/Информация : Audio Video Interleave
Размер файла : 1,46 Гбайт
Продолжительность : 1 ч. 41 м.
Общий поток : 2049 Кбит/сек
Программа кодирования : VirtualDubMod 1.5.10.2 (build 2540/release)
Библиотека кодирования : VirtualDubMod build 2540/release
Видео
Идентификатор : 0
Формат : MPEG-4 Visual
Профиль формата : Advanced [email protected]
Параметр BVOP формата : 2
Параметр QPel формата : Нет
Параметр GMC формата : Без точки перехода
Параметр матрицы формата : Default (MPEG)
Идентификатор кодека : XVID
Идентификатор кодека/Подсказка : XviD
Продолжительность : 1 ч. 41 м.
Битрейт : 1847 Кбит/сек
Ширина : 720 пикселей
Высота : 304 пикселя
Соотношение сторон : 2,35:1
Частота кадров : 24,000 кадра/сек
Цветовое пространство : YUV
Субдискретизация насыщенности : 4:2:0
Битовая глубина : 8 бит
Тип развёртки : Прогрессивная
Метод сжатия : С потерями
Бит/(Пиксели*Кадры) : 0.352
Размер потока : 1,31 Гбайт (90%)
Библиотека кодирования : XviD 1.2.1 (UTC 2008-12-04)
Аудио
Идентификатор : 1
Формат : AC-3
Формат/Информация : Audio Coding 3
Расширение режима : CM (complete main)
Идентификатор кодека : 2000
Продолжительность : 1 ч. 41 м.
Вид битрейта : Постоянный
Битрейт : 192 Кбит/сек
Каналы : 2 канала
Расположение каналов : Front: L R
Частота : 48,0 КГц
Битовая глубина : 16 бит
Метод сжатия : С потерями
Размер потока : 140 Мбайт (9%)
Выравнивание : Разделение по промежуткам
Продолжительность промежутка : 42 мс. (1,00 видеокадр)
Время предзагрузки промежутка : 500 мс.
Скриншоты:

Время раздачи: Круглосуточно до 10 скачавших

[Цитировать]

Топик был перенесен из форума Новинки кинопроката в форум Комедия
Henkok



Показать сообщения:    

Текущее время: 04-Дек 21:28

Часовой пояс: UTC + 3


Вы не можете начинать темы
Вы не можете отвечать на сообщения
Вы не можете редактировать свои сообщения
Вы не можете удалять свои сообщения
Вы не можете голосовать в опросах
Вы не можете прикреплять файлы к сообщениям
Вы не можете скачивать файлы

!ВНИМАНИЕ!
Сайт не предоставляет электронные версии произведений, а занимается лишь коллекционированием и каталогизацией ссылок, присылаемых и публикуемых на форуме нашими читателями. Если вы являетесь правообладателем какого-либо представленного материала и не желаете, чтобы ссылка на него находилась в нашем каталоге, свяжитесь с нами, и мы незамедлительно удалим ее. Файлы для обмена на трекере предоставлены пользователями сайта, и администрация не несет ответственности за их содержание. Просьба не заливать файлы, защищенные авторскими правами, а также файлы нелегального содержания!