[ Сегодня идет свободное скачивание без начисления Download ]


Статистика раздачи
Нет
 
   
 
Top  
 
 
-Железный рыцарь 2 / Ironclad: Battle for Blood (2014) BDRip [1080p] [Line]- Год выпуска: 2014
Производство: Великобритания, International Pictures One, Gloucester Place Films
Жанр: Боевик, Приключения
Режиссер: Джонатан Инглиш
Продюсер: Рик Бенаттар, Эндрю Дж. Кертис, Джонатан Инглиш
Актеры: Мишель Фэйрли, Роксанна МакКи, Дэниэл Уэбб, Рози Дэй, Twinnie Lee Moore, Том Остин, Энди Бекуив, Дэвид Ринтул, Предраг Бьелак, Дэвид Каве
Описание фильма:
Главный герой, выживший после Великой осады Рочестерского замка, охраняет свой народ от кельтских захватчиков.
Перевод: Дублированный (Чистый звук) студия "Пифагор"
Субтитры: Отсутствуют

Дата мировой премьеры: 14 марта 2014
Дата российской премьеры: 12 июня 2014, «West»
Продолжительность: 01:47:46
Качество видео: BDRip [1080p]
Видеокодек: MPEG-4 AVC/H.264
Битрейт видео: ~ 8707 Kbps
Размер кадра: 1920x816
Аудио #1: Русский: AC-3, 48.0 KHz, 2 ch, 384 Kbps, CBR
Аудио #2: Английский: DTS, 48.0 KHz, 6 ch, 1510 Kbps, CBR
Сэмпл: Скачать

MediaInfo:

Общее
Уникальный идентификатор : 207708983786554138615622852490308331494 (0x9C434B8F8EF0BF00B5C7909DD5C7A7E6)
Полное имя : E:\Фильмы\Jeleznyi.rycar'.2.2014.D.BDRip.1080p.mkv
Формат : Matroska
Версия формата : Version 4 / Version 2
Размер файла : 8,14 Гбайт
Продолжительность : 1 ч. 47 м.
Общий поток : 10,8 Мбит/сек
Дата кодирования : UTC 2014-07-10 09:11:14
Программа кодирования : mkvmerge v7.0.0 ('Where We Going') 64bit built on Jun 9 2014 15:16:27
Библиотека кодирования : libebml v1.3.0 + libmatroska v1.4.1
_STATISTICS_WRITING_APP : mkvmerge v7.0.0 ('Where We Going') 64bit built on Jun 9 2014 15:16:27
_STATISTICS_WRITING_DATE_UTC : 2014-07-10 09:11:14
_STATISTICS_TAGS : BPS DURATION NUMBER_OF_FRAMES NUMBER_OF_BYTES
DURATION : 01:47:46.006000000
NUMBER_OF_FRAMES : 606188
NUMBER_OF_BYTES : 1219650324
Attachment : Yes
Видео
Идентификатор : 1
Формат : AVC
Формат/Информация : Advanced Video Codec
Профиль формата : High@L4.1
Параметр CABAC формата : Да
Параметр ReFrames формата : 5 кадров
Идентификатор кодека : V_MPEG4/ISO/AVC
Продолжительность : 1 ч. 47 м.
Битрейт : 8707 Кбит/сек
Ширина : 1920 пикселей
Высота : 816 пикселей
Соотношение сторон : 2,35:1
Режим частоты кадров : Постоянный
Частота кадров : 24,000 кадра/сек
Цветовое пространство : YUV
Субдискретизация насыщенности : 4:2:0
Битовая глубина : 8 бит
Тип развёртки : Прогрессивная
Бит/(Пиксели*Кадры) : 0.232
Размер потока : 6,55 Гбайт (81%)
Библиотека кодирования : x264 core 142 r2409 d6b4e63
Язык : English
Default : Да
Forced : Нет
_STATISTICS_WRITING_APP : mkvmerge v7.0.0 ('Where We Going') 64bit built on Jun 9 2014 15:16:27
_STATISTICS_WRITING_DATE_UTC : 2014-07-10 09:11:14
_STATISTICS_TAGS : BPS DURATION NUMBER_OF_FRAMES NUMBER_OF_BYTES
DURATION : 01:47:45.959000000
NUMBER_OF_FRAMES : 155183
NUMBER_OF_BYTES : 7208939790
Аудио #1
Идентификатор : 2
Формат : AC-3
Формат/Информация : Audio Coding 3
Расширение режима : CM (complete main)
Параметр Endianness формата : Big
Идентификатор кодека : A_AC3
Продолжительность : 1 ч. 47 м.
Вид битрейта : Постоянный
Битрейт : 384 Кбит/сек
Каналы : 2 канала
Расположение каналов : Front: L R
Частота : 48,0 КГц
Битовая глубина : 16 бит
Метод сжатия : С потерями
Размер потока : 296 Мбайт (4%)
Заголовок : AC3 / 2.0 / 384 kbps / Line
Язык : Russian
Default : Да
Forced : Нет
Аудио #2
Идентификатор : 3
Формат : DTS
Формат/Информация : Digital Theater Systems
Режим : 16
Параметр Endianness формата : Big
Идентификатор кодека : A_DTS
Продолжительность : 1 ч. 47 м.
Вид битрейта : Постоянный
Битрейт : 1509 Кбит/сек
Каналы : 6 каналов
Расположение каналов : Front: L C R, Side: L R, LFE
Частота : 48,0 КГц
Битовая глубина : 16 бит
Метод сжатия : С потерями
Размер потока : 1,14 Гбайт (14%)
Заголовок : DTS / 5.1 / 1510 kbps / Original
Язык : English
Default : Нет
Forced : Нет
Меню
00:00:00.000 : en:00:00:00.000
00:03:53.500 : en:00:03:53.500
00:06:33.500 : en:00:06:33.500
00:14:15.000 : en:00:14:15.000
00:20:14.000 : en:00:20:14.000
00:23:04.000 : en:00:23:04.000
00:29:38.000 : en:00:29:38.000
00:34:59.500 : en:00:34:59.500
00:43:23.000 : en:00:43:23.000
00:49:46.500 : en:00:49:46.500
00:57:41.500 : en:00:57:41.500
01:09:07.000 : en:01:09:07.000
01:18:18.500 : en:01:18:18.500
01:28:40.500 : en:01:28:40.500
01:42:48.500 : en:01:42:48.500

Avdump:

File: E:\Фильмы\Jeleznyi.rycar'.2.2014.D.BDRip.1080p.mkv
Duration: 01:47:46 (6466.01)
Track #1: video
lang: Unknown (1)
codc: V_MPEG4/ISO/AVC -> H264/AVC (22)
reso: 1920x816 -> Unknown (aka not common)
fram: 24 fps
rate: 8919 kbps (8919.31)
dura: 01:47:46 (6465.92)
size: 6.71 GB (7208939790)
Track #2: audio (AC3 / 2.0 / 384 kbps / Line)
lang: rus -> Russian (15)
codc: A_AC3 -> AC3 (2)
chan: 2 -> Stereo
samp: 48000 Hz
rate: 384 kbps (384.05)
dura: 01:47:46 (6465.73)
size: 296.01 MB (310393157)
Track #3: audio (DTS / 5.1 / 1510 kbps / Original)
lang: Unknown (1)
codc: A_DTS -> DTS (13)
chan: 6 -> 5.1 Surround
samp: 48000 Hz
rate: 1509 kbps (1509.10)
dura: 01:47:46 (6465.98)
size: 1.14 GB (1219728491)
Sizes: (check sanity)
disk: 8.14 GB (8741178718)
trac: 4.14 GB (4444094142) [based on track size]
bitr: 8.14 GB (8739056995) [based on bitrate]
tdif: 4.00 GB (4297084576) 49.15%
bdif: 2.02 MB (2121722) 0.02%
Скриншоты:
Время раздачи: 24/7
(до 5 скачавших)

[Цитировать]



Показать сообщения:    

Текущее время: 07-Дек 11:41

Часовой пояс: UTC + 3


Вы не можете начинать темы
Вы не можете отвечать на сообщения
Вы не можете редактировать свои сообщения
Вы не можете удалять свои сообщения
Вы не можете голосовать в опросах
Вы не можете прикреплять файлы к сообщениям
Вы не можете скачивать файлы

!ВНИМАНИЕ!
Сайт не предоставляет электронные версии произведений, а занимается лишь коллекционированием и каталогизацией ссылок, присылаемых и публикуемых на форуме нашими читателями. Если вы являетесь правообладателем какого-либо представленного материала и не желаете, чтобы ссылка на него находилась в нашем каталоге, свяжитесь с нами, и мы незамедлительно удалим ее. Файлы для обмена на трекере предоставлены пользователями сайта, и администрация не несет ответственности за их содержание. Просьба не заливать файлы, защищенные авторскими правами, а также файлы нелегального содержания!