[ Сегодня идет свободное скачивание без начисления Download ]


Статистика раздачи
Нет
 
   
 
Top  
 
 
Узнай меня, если сможешь
Год выпуска: 2014
Производство: Кинокомпания "УПС"
Жанр: остросюжетная мелодрама
Продолжительность: 00:40:00
Субтитры: Нет
Режиссёр: Алексей Гусев
В ролях: Иван Стебунов, Юрий Стоянов, Евгения Лоза, Тимур Ефременков, Ярослав Жалнин, Ирина Розанова, Борис Щербаков, Сергей Перегудов, Сергей Жигунов, Дмитрий Никонов
Описание: Молодой парень Илья Авдеев влюблен в девушку Алису. Ее отец заставляет дочь кокетничать с состоятельными мужчинами, а потом грозится засадить ухажеров в тюрьму за оскорбление несовершеннолетней и вымогает у них деньги за молчание. Алиса идет на поводу у отца из-за больной лейкемией сестры. Илья тем временем сам попадает за решетку по ложному обвинению в убийстве охранника и ограблении казино.
В тюрьме по официальной версии Авдеев погибает. Но на самом деле с новым, после пластической операции, лицом выходит на свободу. Теперь его зовут Никита Громов. Под свою опеку его берет криминальный авторитет Роман Архипов. Парень нужен Архипову как орудие мести, поскольку ограбленное казино принадлежало ему. Да и сам без вины виноватый парень жаждет мести. К тому же, пока он был в тюрьме его любимая Алиса вышла замуж за другого...
Адаптация турецкого телесериала "Эзель"
Молодой парень живет в приятном приморском городке, собирается жениться на прекрасной девушке, но уходит служить в армию. А когда возвращается, не понимает, где очутился. Любимая предала с лучшим другом, к тому же они еще и повесили на парня убийство. В тюрьму засадили. После того как молодой человек выходит на свободу, он попадает под опеку опытного криминального авторитета, который учит его мастерству душегубства. Даже внешность героя меняется. Он становится новой личностью, безжалостным мстителем.
-
Доп. информация: Реклама отсутствует!
-
Сэмпл: https://cloud.mail.ru/public/2855e52278c6/%D0%A3%D0...Rip.by.simka.avi
Качество: SATRip
Формат: AVI
Видео кодек: XviD
Аудио кодек: MP3
Видео: 704x368, 25 fps, XviD, ~1444 kbps, 0.229 bit/pixel
Аудио: 48 kHz, MPEG Layer 3, 2 ch, 192 kbps
MI
Общее
Полное имя : U:\Сериалы\Узнай меня, если сможешь (2014)\Узнай менЯ, если сможешь.(01.seriya).2014.XviD.SATRip.by.simka.avi
Формат : AVI
Формат/Информация : Audio Video Interleave
Размер файла : 516 Мбайт
Продолжительность : 43 м.
Общий поток : 1645 Кбит/сек
Программа кодирования : VirtualDubModRus 1.5.10.2 (build 2542/release)
Библиотека кодирования : VirtualDubMod build 2542/release
Видео
Идентификатор : 0
Формат : MPEG-4 Visual
Профиль формата : Advanced Simple@L5
Параметр BVOP формата : 1
Параметр QPel формата : Нет
Параметр GMC формата : Без точки перехода
Параметр матрицы формата : Default (MPEG)
Идентификатор кодека : XVID
Идентификатор кодека/Подсказка : XviD
Продолжительность : 43 м.
Битрейт : 1444 Кбит/сек
Ширина : 704 пикселя
Высота : 368 пикселей
Соотношение сторон : 1,913
Частота кадров : 25,000 кадров/сек
Цветовое пространство : YUV
Субдискретизация насыщенности : 4:2:0
Битовая глубина : 8 бит
Тип развёртки : Прогрессивная
Метод сжатия : С потерями
Бит/(Пиксели*Кадры) : 0.223
Размер потока : 453 Мбайт (88%)
Библиотека кодирования : XviD 1.2.1 (UTC 2008-12-04)
Аудио
Идентификатор : 1
Формат : MPEG Audio
Версия формата : Version 1
Профиль формата : Layer 3
Режим : Joint stereo
Расширение режима : MS Stereo
Идентификатор кодека : 55
Идентификатор кодека/Подсказка : MP3
Продолжительность : 43 м.
Вид битрейта : Постоянный
Битрейт : 192 Кбит/сек
Каналы : 2 канала
Частота : 48,0 КГц
Метод сжатия : С потерями
Размер потока : 60,2 Мбайт (12%)
Выравнивание : Соединение по промежуткам
Продолжительность промежутка : 40 мс. (1,00 видеокадр)
Время предзагрузки промежутка : 504 мс.
Библиотека кодирования : LAME3.99r
Настройки программы : -m j -V 4 -q 2 -lowpass 18.6 -b 192
Скриншоты -------------
Внимание! Раздача ведётся путём добавления новых выпусков
При каждом добавлении создаётся новый торрент. Чтобы начать докачку нового выпуска, пользователям необходимо сделать следующее:
? остановить скачивание;
? удалить старый торрент у себя из клиента (старые выпуски удалять не надо);
? скачать новый торрент и запустить его у себя в клиенте вместо старого, при этом указать клиенту путь в старую папку куда и должно происходить скачивание новых выпусков;
? ваш клиент при запуске должен произвести хеширование (проверку) старой папки (если не производит сам - помогите ему сделать это), и будет докачивать только те выпуски, которых у вас ещё нет. Старые выпуски при этом не удаляются, а продолжают раздаваться!, Конец фильма!, Продолжения в понедельник если не доберется ПО http://inter.ua/ru/cinema/films/muzh_na_chas_2014
? Eсли вы уже удалили старые выпуски, то предотвратить повторную закачку старых выпусков можно, отжав галочку в соответсвующих местах при запуске нового торрента.внимания в 4-й серии отсутствует около 7 минут из за погодних условий завтра с повтора надеюсь записать и будет замена!!! Концовка есть думаю не поттера ети 7 минДобавлена 15-я и 16-я

[Цитировать]



Показать сообщения:    

Текущее время: 09-Дек 22:21

Часовой пояс: UTC + 3


Вы не можете начинать темы
Вы не можете отвечать на сообщения
Вы не можете редактировать свои сообщения
Вы не можете удалять свои сообщения
Вы не можете голосовать в опросах
Вы не можете прикреплять файлы к сообщениям
Вы не можете скачивать файлы

!ВНИМАНИЕ!
Сайт не предоставляет электронные версии произведений, а занимается лишь коллекционированием и каталогизацией ссылок, присылаемых и публикуемых на форуме нашими читателями. Если вы являетесь правообладателем какого-либо представленного материала и не желаете, чтобы ссылка на него находилась в нашем каталоге, свяжитесь с нами, и мы незамедлительно удалим ее. Файлы для обмена на трекере предоставлены пользователями сайта, и администрация не несет ответственности за их содержание. Просьба не заливать файлы, защищенные авторскими правами, а также файлы нелегального содержания!