[ Сегодня идет свободное скачивание без начисления Download ]


Статистика раздачи
Нет
 
   
 
Top  
 
 
Пляж
Год выпуска: 2014
Производство: Россия, Украина, "Браво"
Жанр: Детектив
Продолжительность: 00:45:00
Субтитры: нет
Режиссёр:Дмитрий Пантелеев
В ролях: Павел Делонг, Георгий Дронов, Заза Чантурия, Анна Топчий, Виталий Салий, Александр Перков, Дана Агишева, Николай Григоренко, Алексей Смолка, Мария Цап-Страшилина, Георгий Хостикоев, Елена Баламутова, Саак Дурян, Арсен Босенко, Олег Шевчук, Дмитрий Захаров, Анна Сагайдачная, Алена Алымова, Иванна Бжезинская, Михаил Досенко, Марк Дробот, Андрей Мельников
Описание: Главный герой сериала «Пляж» – бывший милиционер Парамонов из маленького курортного городка Азовска, расположенного в Краснодарском крае. Честный и неподкупный, искренне стремившийся бороться с преступностью, не идя ни на какие компромиссы с совестью, он был белой вороной на фоне своих коллег, подавляющее большинство которых состояло из алкоголиков, карьеристов и взяточников.С тех пор прошло восемь лет. Парамонов, твердо решив начать новую, спокойную жизнь, сменил много мест работы и в итоге стал директором местного пляжа. Но окончательно поставить крест на своей прежней профессии ему так и не удалось. Его лучший друг и бывший коллега Дашко, который дослужился до начальника того самого РОВД, который когда-то покинул Парамонов, по старой памяти постоянно обращается к нему за помощью в расследовании запутанных преступлений.
Качество: SATRip
Формат: AVI
Видео кодек: XviD
Аудио кодек: MP3
Видео: 720x400 (1.80:1), 25 fps, XviD MPEG-4 ~1512 kbps avg, 0.21 bit/pixel
Аудио: 48 kHz, MPEG Layer 3, 2 ch, ~192.00 kbps avg
Сторонней рекламы нет!
MI
ОбщееПолное имя : H:\Пляж SATRip XviD\Пляж 01_серия_SATRip_XviD.aviФормат : AVIФормат/Информация : Audio Video InterleaveРазмер файла : 548 МбайтПродолжительность : 44 м.Общий поток : 1710 Кбит/секПрограмма кодирования : TMPGEnc Video Mastering Works 5 Version. 5.0.6.38Библиотека кодирования : TMPGEnc Video Mastering Works 5 Version. 5.0.6.38
ВидеоИдентификатор : 0Формат : MPEG-4 VisualПрофиль формата : Advanced [email protected] BVOP формата : 2Параметр QPel формата : НетПараметр GMC формата : Без точки переходаПараметр матрицы формата : Default (MPEG)Идентификатор кодека : XVIDИдентификатор кодека/Подсказка : XviDПродолжительность : 44 м.Битрейт : 1510 Кбит/секШирина : 720 пикс.Высота : 400 пикс.Соотношение сторон : 16:9Частота кадров : 25,000 кадр/секЦветовое пространство : YUVПодвыборка цветности : 4:2:0Битовая глубина : 8 битТип развёртки : ПрогрессивнаяМетод сжатия : С потерямиБит/(Пиксели*Кадры) : 0.210Размер потока : 484 Мбайт (88%)Библиотека кодирования : XviD 64
АудиоИдентификатор : 1Формат : MPEG AudioВерсия формата : Version 1Профиль формата : Layer 3Режим : Joint stereoИдентификатор кодека : 55Идентификатор кодека/Подсказка : MP3Продолжительность : 44 м.Вид битрейта : ПостоянныйБитрейт : 192 Кбит/секКаналы : 2 каналаЧастота : 48,0 КГцМетод сжатия : С потерямиРазмер потока : 61,6 Мбайт (11%)Выравнивание : Соединение по промежуткамПродолжительность промежутка : 250 мс. (6,25 видеокадров)Время предзагрузки промежутка : 216 ms
Внимание ! Раздача ведётся путём добавления новых серий
Внимание! Раздача ведётся путём добавления новых серий; при каждом добавлении создётся новый торрент. Чтобы начать докачку новой серии, пользователям необходимо сделать следующее:
(1) остановить скачивание,
(2) удалить старый торрент у себя из клиента (старые серии удалять не надо),
(3) скачать новый торрент и запустить его у себя в клиенте вместо старого, при этом указать клиенту путь в старую папку куда и должно происходить скачивание новых серий.
Ваш клиент при этом должен произвести хеширование (проверку) старой папки (если не производит сам - помогите ему сделать это), и будет докачивать только те серии которых у вас ещё нет. Старые серии при этом не удаляются, а продолжают раздаваться!
Eсли вы уже удалили старые серии, то предотвратить повторную закачку старых серий можно, отжав галочку в соответсвующих местах при запуске нового торрента. По возможности, желательно не удалять старые серии как можно дольше чтобы релизёр не столько продолжал раздавать старые серии, а смог сконцентрироваться на новых.
ВНИМАНИЕ! ТОРРЕНТ ПЕРЕЗАЛИТ! ДОБАВЛЕНА 31-ая - 32-ая СЕРИИ!Скриншоты

[Цитировать]



Показать сообщения:    

Текущее время: 05-Дек 01:29

Часовой пояс: UTC + 3


Вы не можете начинать темы
Вы не можете отвечать на сообщения
Вы не можете редактировать свои сообщения
Вы не можете удалять свои сообщения
Вы не можете голосовать в опросах
Вы не можете прикреплять файлы к сообщениям
Вы не можете скачивать файлы

!ВНИМАНИЕ!
Сайт не предоставляет электронные версии произведений, а занимается лишь коллекционированием и каталогизацией ссылок, присылаемых и публикуемых на форуме нашими читателями. Если вы являетесь правообладателем какого-либо представленного материала и не желаете, чтобы ссылка на него находилась в нашем каталоге, свяжитесь с нами, и мы незамедлительно удалим ее. Файлы для обмена на трекере предоставлены пользователями сайта, и администрация не несет ответственности за их содержание. Просьба не заливать файлы, защищенные авторскими правами, а также файлы нелегального содержания!