[ Сегодня идет свободное скачивание без начисления Download ]


Статистика раздачи
Нет
 
   
 
Top  
 
 
-СамСам: Приключения Супергероя / SamSam (2007) DVDRip- Русское название: СамСам: Приключения Супергероя
Оригинальное название: SamSam
Год выпуска: 2007
Жанр: Детский
Перевод: Многоголосый закадровый, профессиональный

Режиссер: Тенгай Де Кермель
Персонажи: СамСам, СамМама, СамПапа, СамТедди, Макяк, СуперДжулия и т. д.
Описание фильма:
Знакомьтесь с СамСамом — самым маленьким Cупергероем! Он родился в такой семье, где даже игрушечный медвежонок обладает удивительными способностями. Что уж говорить о его родителях-суперагентах! Так что малышу самой судьбой уготовано стать космическим Cупергероем.
И пусть у него пока не достает Суперсилы, но это не означает, что СамСам не может воспользоваться своей собственной летающей СамТарелкой или разобраться с отвратительными космическими грязномонстрами! Иногда ему требуется небольшая помощь от СамМамы, СамПапы, мишки СамТедди или его друзей: марсианца Cвитпи, грязнули Макяка и СуперДжулии. А уж добавив к этому смекалку и немножечко воображения, он справится со всеми неприятностями!

Список серий:

01. Нападение Мокрокроватов
02. Возвращение На Марс
03. МакЯк - Стал Чистым
04. Дерево Волшебных Карт
05. Нелепый Вид
06. Планета Зеркал
07. Больше Никаких Поцелуев
08. Вооружен До Зубов
09. Без СамТэдди - Никуда
10. Верный Выбор
11. Незваные гости
12. СамСам - Невидимка
13. Как Аукнется, Так и Откликнется
14. Может Сменить Ребенка?
15. Марсилион
16. Может Сменить Ребенка?
17. Монстр Без имени
18. Его Величество Принимает Гостей
19. Учительница Сна
20. Планета Монстров
21. Друзья МакЯка
22. Игры Мальчиков, Игры Девочек
23. Марсианский Великан
24. День Плохого Сна
25. Затерянные В Космосе
26. В Гостях У МакЯка
Продолжительность: 03:00:58
Качество видео: DVDRip
Видеокодек: Xvid
Битрейт видео: ~1485 kbps
Размер кадра: 672x368
Аудиокодек: MP3, 2 канала
Битрейт аудио: ~128 kbps

MediaInfo:

Формат : AVI
Формат/Информация : Audio Video Interleave
Профиль формата : OpenDML
Размер файла : 2,05 Гбайт
Продолжительность : 3 ч. 0 м.
Общий поток : 1626 Кбит/сек
Программа кодирования : VirtualDubMod 1.5.10.2 (build 2540/release)
Библиотека кодирования : VirtualDubMod build 2540/release
Видео
Идентификатор : 0
Формат : MPEG-4 Visual
Профиль формата : Advanced [email protected]
Параметр BVOP формата : 2
Параметр QPel формата : Нет
Параметр GMC формата : Без точки перехода
Параметр матрицы формата : Default (MPEG)
Режим смешивания : Сжатый битовый поток
Идентификатор кодека : XVID
Идентификатор кодека/Подсказка : XviD
Продолжительность : 3 ч. 0 м.
Битрейт : 1485 Кбит/сек
Ширина : 672 пикселя
Высота : 368 пикселей
Соотношение сторон : 16:9
Частота кадров : 25,000 кадров/сек
Цветовое пространство : YUV
Субдискретизация насыщенности : 4:2:0
Битовая глубина : 8 бит
Тип развёртки : Прогрессивная
Метод сжатия : С потерями
Бит/(Пиксели*Кадры) : 0.240
Размер потока : 1,88 Гбайт (91%)
Библиотека кодирования : XviD 1.2.0.dev47 (UTC 2006-11-01)
Аудио
Идентификатор : 1
Формат : MPEG Audio
Версия формата : Version 1
Профиль формата : Layer 3
Режим : Joint stereo
Расширение режима : MS Stereo
Идентификатор кодека : 55
Идентификатор кодека/Подсказка : MP3
Продолжительность : 3 ч. 0 м.
Вид битрейта : Постоянный
Битрейт : 128 Кбит/сек
Каналы : 2 канала
Частота : 48,0 КГц
Метод сжатия : С потерями
Размер потока : 166 Мбайт (8%)
Выравнивание : Соединение по промежуткам
Продолжительность промежутка : 40 мс. (1,00 видеокадр)
Время предзагрузки промежутка : 504 мс.
Скриншоты:
Время раздачи: 10:00 до 23:30

[Цитировать]



Показать сообщения:    

Текущее время: 05-Дек 03:33

Часовой пояс: UTC + 3


Вы не можете начинать темы
Вы не можете отвечать на сообщения
Вы не можете редактировать свои сообщения
Вы не можете удалять свои сообщения
Вы не можете голосовать в опросах
Вы не можете прикреплять файлы к сообщениям
Вы не можете скачивать файлы

!ВНИМАНИЕ!
Сайт не предоставляет электронные версии произведений, а занимается лишь коллекционированием и каталогизацией ссылок, присылаемых и публикуемых на форуме нашими читателями. Если вы являетесь правообладателем какого-либо представленного материала и не желаете, чтобы ссылка на него находилась в нашем каталоге, свяжитесь с нами, и мы незамедлительно удалим ее. Файлы для обмена на трекере предоставлены пользователями сайта, и администрация не несет ответственности за их содержание. Просьба не заливать файлы, защищенные авторскими правами, а также файлы нелегального содержания!