[ Сегодня идет свободное скачивание без начисления Download ]


Статистика раздачи
Нет
 
   
 
Top  
 
 
-Волшебство Хлои / Chloe's Closet (2009) WEB-DLRip (74 серии из ??)- Год выпуска: 2009
Жанр: Мультсериал, приключения, детский
Производство: США, Германия, Великобритания | Mike Young Productions, Wales Creative IP Fund, European Film Partners (EFP)
Режиссер: Джефри Пригфдан
Описание фильма:
Хлоя — очаровательная девочка четырех лет, которая обожает фантазировать.
Когда она с друзьями играет в переодевалки в волшебном шкафу, дети мысленно переносятся в джунгли,
открытый космос, на дикий запад или в волшебные земли!

За рип Спасибо merci
Продолжительность: 74 х ~ 00:11:00
Качество видео: WEB-DLRip
Перевод: Дублированный
Видео: XviD, 720x400 (16:9), 25.000 fps, 1 201 Kbps (0.167 bit/pixel)
Аудио: AC-3, 48.0 KHz, 2 ch, 192 Kbps, CBR

Список серий:

01. Загадочная Радуга
02. Розовая Принцесса
03. Обезьянки Карибского Моря
04. Снежные Звёздочки
05. Забывчивое Эхо
06. Одеялко для Солнышка
07. На Правильном Пути
08. Музыка в Джунглях
09. Идеальная пара
10. Лучшие супер-друзья
11. Ночное приключение
12. Новое имя Малыша
13. Весёлые пекари
14. Танцевальные па
15. отсутствует
16. В стране динозавров
17. Из любви к искусству
18. Волшебный Сад
19. Достойная замена
20. Среди песков
21. Большое и маленькое
22. Спасатели
23. Лесные феи
24. В гостях у королевы
25. Самый великий волшебник
26. Мастера
27. Доверьте дело бобрам
28. Мы - команда!
29. Неуклюжие акробаты
30. Зубная фея
31. На холодном полюсе
32. Расхитители яиц
33. Рассекая просторы
34. Десять Рыжиков
35. Таланты Джета
36. Прыгучие ботинки
37. Дело о пропавших бананах
38. Удивительные игрушки
39. Пожарная тревога
40. Настоящие ковбои
41. Утёнок летит на юг
42. Битва с семью воронами
43. Город квадратов
44. Лучшие игроки
45. С чего начинается утро
46. Музыкальные таланты
47. Особая посылка
48. Школа волшебников
49. Дорогие игрушки
50. Новые таланты
51. Вместе веселее
52. Новые чудеса
53. Овечки и Пастушки
54. Кинозвёзды
55. Великая пирамида
56. Попрыгунчик
57. Немножко по-другому
58. Спящая красавица
59. Пчелки, большие и маленькие
60. Праздничный обед
61. Вместе веселее-2
62. Удивительный поход
63. Кто мастера боится?
64. Фиеста
65. Быстрее страуса
66. Большой добрый волк
67. Дискотека
68. Модельеры
69. Домик для каждого
70. Красный дракоша
71. Проверь и поверь
72. Сокровище говорящей горы
73. Кто на что способен
74. Талантливые лошадки
75. Командная работа

MediaInfo 1 серии:

Complete name \Волшебство Хлои\001. Загадочная Радуга.avi
Format : AVI
Format/Info : Audio Video Interleave
File size : 111 MiB
Duration : 11mn 1s
Overall bit rate : 1 403 Kbps
Writing application : VirtualDubMod 1.5.10.3 | (build 2550/release)
Writing library : VirtualDubMod build 2550/release
Video
ID : 0
Format : MPEG-4 Visual
Format profile : Advanced Simple@L5
Format settings, BVOP : 2
Format settings, QPel : No
Format settings, GMC : No warppoints
Format settings, Matrix : Default (MPEG)
Codec ID : XVID
Codec ID/Hint : XviD
Duration : 11mn 1s
Bit rate : 1 201 Kbps
Width : 720 pixels
Height : 400 pixels
Display aspect ratio : 16:9
Frame rate : 25.000 fps
Color space : YUV
Chroma subsampling : 4:2:0
Bit depth : 8 bits
Scan type : Progressive
Compression mode : Lossy
Bits/(Pixel*Frame) : 0.167
Stream size : 94.8 MiB (86%)
Writing library : XviD 73
Audio
ID : 1
Format : AC-3
Format/Info : Audio Coding 3
Mode extension : CM (complete main)
Format settings, Endianness : Big
Codec ID : 2000
Duration : 11mn 1s
Bit rate mode : Constant
Bit rate : 192 Kbps
Channel(s) : 2 channels
Channel positions : Front: L R
Sampling rate : 48.0 KHz
Bit depth : 16 bits
Compression mode : Lossy
Stream size : 15.1 MiB (14%)
Alignment : Split accross interleaves
Interleave, duration : 40 ms (1.00 video frame)
Interleave, preload duration : 500 ms
Скриншоты:

[Цитировать]

Топик был перенесен из форума Другие мультсериалы в форум Зарубежные мультфильмы
Prizr@k



Показать сообщения:    

Текущее время: 07-Дек 21:23

Часовой пояс: UTC + 3


Вы не можете начинать темы
Вы не можете отвечать на сообщения
Вы не можете редактировать свои сообщения
Вы не можете удалять свои сообщения
Вы не можете голосовать в опросах
Вы не можете прикреплять файлы к сообщениям
Вы не можете скачивать файлы

!ВНИМАНИЕ!
Сайт не предоставляет электронные версии произведений, а занимается лишь коллекционированием и каталогизацией ссылок, присылаемых и публикуемых на форуме нашими читателями. Если вы являетесь правообладателем какого-либо представленного материала и не желаете, чтобы ссылка на него находилась в нашем каталоге, свяжитесь с нами, и мы незамедлительно удалим ее. Файлы для обмена на трекере предоставлены пользователями сайта, и администрация не несет ответственности за их содержание. Просьба не заливать файлы, защищенные авторскими правами, а также файлы нелегального содержания!