[ Сегодня идет свободное скачивание без начисления Download ]


Статистика раздачи
Нет
 
   
 
Top  
 
 
-Альфа и Омега 3 / Alpha and Omega 3: The Great Wolf Games (2014) BDRip- Год выпуска: 2014
Жанр: Детский, Приключения
Перевод: Двуголосый закадровый, любительский
Язык: Русский
Озвучка / Автор перевода: М. Кенс и О. Брыкина

Режиссер: Ричард Рич
Персонажи: Бен Дискин, Кейт Хиггинс, Блэки Роуз, Линдсей Торренс, Лиза Уэст, Трэйси Пфау, Бил Лэйдер, Шон Жерардо
Описание фильма:
Маленькие и отважные волчата решили устроить соревнования между собой. Они сумели включить в соревнования несколько различных видов спорта, таких как бег, бег с препятствиями и другие виды спорта из программы лёгкой атлетики. Волчата поделились на команды и начали играть, все знают, что победа достанется тем, кто больше всех старается. Все участники соревнований дружны между собой, никто никого не подставляет и соревнуется честно. Эта интересная картина даёт зрителям только положительные эмоции, она рассчитана на детей дошкольного возраста, им интересно будет посмотреть на то, как дружно и весело соревнуются юные волчата. Все выкладываются на полную мощь, но кто-то готов лучше, а кто-то хуже. Пусть победит сильнейший, под таким девизом проходят эти соревнования.
Продолжительность: 00:45:03
Качество видео: BDRip
Видеокодек: Xvid
Битрейт видео: ~4333 kb/s
Размер кадра: 1280x720
Аудиокодек: AC3, 6 ch
Битрейт аудио: 384 kb/s

Mediainfo

Формат : Matroska
Версия формата : Version 4 / Version 2
Размер файла : 1,99 Гбайт
Продолжительность : 45 м.
Общий поток : 6315 Кбит/сек
Дата кодирования : UTC 2014-06-15 22:01:50
Программа кодирования : mkvmerge v6.7.0 ('Back to the Ground') 32bit built on Jan 8 2014 15:03:17
Библиотека кодирования : libebml v1.3.0 + libmatroska v1.4.1
Видео
Идентификатор : 1
Формат : AVC
Формат/Информация : Advanced Video Codec
Профиль формата : High@L4.1
Параметр CABAC формата : Да
Параметр ReFrames формата : 9 кадров
Идентификатор кодека : V_MPEG4/ISO/AVC
Продолжительность : 45 м.
Битрейт : 4297 Кбит/сек
Ширина : 1280 пикселей
Высота : 720 пикселей
Соотношение сторон : 16:9
Режим частоты кадров : Постоянный
Частота кадров : 23,976 кадра/сек
Цветовое пространство : YUV
Субдискретизация насыщенности : 4:2:0
Битовая глубина : 8 бит
Тип развёртки : Прогрессивная
Бит/(Пиксели*Кадры) : 0.194
Размер потока : 1,35 Гбайт (68%)
Заголовок : Alpha and Omega 3: The Great Wolf Games (2014)
Библиотека кодирования : x264 core 142 r2409kMod d6b4e63
Язык : English
Default : Да
Forced : Да
Аудио #1
Идентификатор : 2
Формат : AC-3
Формат/Информация : Audio Coding 3
Расширение режима : CM (complete main)
Параметр Endianness формата : Big
Идентификатор кодека : A_AC3
Продолжительность : 45 м.
Вид битрейта : Постоянный
Битрейт : 384 Кбит/сек
Каналы : 6 каналов
Расположение каналов : Front: L C R, Side: L R, LFE
Частота : 48,0 КГц
Битовая глубина : 16 бит
Метод сжатия : С потерями
Размер потока : 124 Мбайт (6%)
Язык : Russian
Default : Да
Forced : Да
Аудио #2
Идентификатор : 3
Формат : DTS
Формат/Информация : Digital Theater Systems
Режим : 16
Параметр Endianness формата : Big
Идентификатор кодека : A_DTS
Продолжительность : 45 м.
Вид битрейта : Постоянный
Битрейт : 1509 Кбит/сек
Каналы : 6 каналов
Расположение каналов : Front: L C R, Side: L R, LFE
Частота : 48,0 КГц
Битовая глубина : 24 бит
Метод сжатия : С потерями
Размер потока : 486 Мбайт (24%)
Язык : English
Default : Нет
Forced : Нет
Текст #1
Идентификатор : 4
Формат : UTF-8
Идентификатор кодека : S_TEXT/UTF8
Идентификатор кодека/Информация : UTF-8 Plain Text
Язык : English
Default : Нет
Forced : Нет
Текст #2
Идентификатор : 5
Формат : UTF-8
Идентификатор кодека : S_TEXT/UTF8
Идентификатор кодека/Информация : UTF-8 Plain Text
Язык : Spanish
Default : Нет
Forced : Нет
Скриншоты: Время раздачи: 8:00-24:00

[Цитировать]

Топик был перенесен из форума Другие мультсериалы в форум Зарубежные мультфильмы
Prizr@k



Показать сообщения:    

Текущее время: 08-Дек 10:56

Часовой пояс: UTC + 3


Вы не можете начинать темы
Вы не можете отвечать на сообщения
Вы не можете редактировать свои сообщения
Вы не можете удалять свои сообщения
Вы не можете голосовать в опросах
Вы не можете прикреплять файлы к сообщениям
Вы не можете скачивать файлы

!ВНИМАНИЕ!
Сайт не предоставляет электронные версии произведений, а занимается лишь коллекционированием и каталогизацией ссылок, присылаемых и публикуемых на форуме нашими читателями. Если вы являетесь правообладателем какого-либо представленного материала и не желаете, чтобы ссылка на него находилась в нашем каталоге, свяжитесь с нами, и мы незамедлительно удалим ее. Файлы для обмена на трекере предоставлены пользователями сайта, и администрация не несет ответственности за их содержание. Просьба не заливать файлы, защищенные авторскими правами, а также файлы нелегального содержания!