[ Сегодня идет свободное скачивание без начисления Download ]


Статистика раздачи
Нет
 
   
 
Top  
 
 
-Барби: Принцесса и поп-звезда / Barbie: The Princess & The Popstar (2012) DVDRip - Русское название: Барби: Принцесса и поп-звезда
Оригинальное название: Barbie: The Princess & The Popstar

Год выпуска: 2012
Страна: США
Жанр: Мультфильм, семейный
Режиссер: Изекиль Нортон
Персонажи: Принцесса Тори, Поп звезда Кира, Король Фредерик, Нора, Мередит, Ванесса, Принц Лиам и др...
Описание фильма: В мультфильме «Барби: Принцесса и Поп звезда» Барби играет принцессу Тори, которая мечтает оставить свою королевскую жизнь, а жить так, как ее самая любимая Поп звезда Кира. Одновременно, Кира устала от постоянных концертов и образа Поп звезды, она мечтает стать настоящей принцессой! И вот однажды, две девушки знакомятся в волшебной лавке и меняются местами. Однако все не так просто, как кажется на первый взгляд. Очень скоро они понимают, что лучше всегда оставаться собой и ценить ту жизнь, которая у тебя есть. Все поклонники будут в восторге от новых, удивительных песен и мелодий, звучащих в мультфильме!

Продолжительность: 01:12:21
Перевод: Дублированный
Субтитры: отсутствуют
Качество видео: DVDRip
Видеокодек: MPEG-4 AVC/H.264
Битрейт видео: ~2 103 кбит/с
Размер кадра: [email protected]
Аудио 1: Русский: AC3; 384 Kbps; CBR; 6 ch
Аудио 2: Англ-ий: AC3; 384 Kbps; CBR; 6 ch

MediaInfo:

General
Unique ID : 209162094113398203976685258537603144406 (0x9D5B276E674AC01689BAE8924D439AD6)
Complete name : D:\Barbi.Princessa.i.pop.zvezda.2012.(H.264).DVDRip.mkv
Format : Matroska
Format version : Version 1
File size : 1.45 GiB
Duration : 1h 12mn
Overall bit rate : 2 874 Kbps
Encoded date : UTC 2012-11-04 08:33:14
Writing application : mkvmerge v2.1.0 ('Another Place To Fall') built on Aug 19 2007 13:40:07
Writing library : libebml v0.7.7 + libmatroska v0.8.1
Video
ID : 1
Format : AVC
Format/Info : Advanced Video Codec
Format profile : [email protected]
Format settings, CABAC : Yes
Format settings, ReFrames : 8 frames
Codec ID : V_MPEG4/ISO/AVC
Duration : 1h 12mn
Bit rate : 2 103 Kbps
Width : 720 pixels
Height : 576 pixels
Display aspect ratio : 16:9
Original display aspect ratio : 5:4
Frame rate mode : Constant
Frame rate : 25.000 fps
Standard : PAL
Color space : YUV
Chroma subsampling : 4:2:0
Bit depth : 8 bits
Scan type : Progressive
Bits/(Pixel*Frame) : 0.203
Stream size : 1.04 GiB (71%)
Writing library : x264 core 115 r1937 aa21558
Encoding settings : cabac=1 / ref=8 / deblock=1:-2:-2 / analyse=0x3:0x113 / me=umh / subme=8 / psy=1 / psy_rd=1.00:0.10 / mixed_ref=0 / me_range=32 / chroma_me=1 / trellis=2 / 8x8dct=1 / cqm=0 / deadzone=21,11 / fast_pskip=1 / chroma_qp_offset=-3 / threads=6 / sliced_threads=0 / nr=0 / decimate=1 / interlaced=0 / bluray_compat=0 / constrained_intra=0 / bframes=8 / b_pyramid=2 / b_adapt=2 / b_bias=0 / direct=3 / weightb=1 / open_gop=0 / weightp=0 / keyint=250 / keyint_min=25 / scenecut=40 / intra_refresh=0 / rc_lookahead=30 / rc=2pass / mbtree=1 / bitrate=2103 / ratetol=1.0 / qcomp=0.60 / qpmin=15 / qpmax=47 / qpstep=3 / cplxblur=20.0 / qblur=0.5 / ip_ratio=1.40 / aq=1:1.10
Language : English
Default : Yes
Forced : No
Audio #1
ID : 2
Format : AC-3
Format/Info : Audio Coding 3
Mode extension : CM (complete main)
Format settings, Endianness : Big
Codec ID : A_AC3
Duration : 1h 12mn
Bit rate mode : Constant
Bit rate : 384 Kbps
Channel(s) : 6 channels
Channel positions : Front: L C R, Side: L R, LFE
Sampling rate : 48.0 KHz
Bit depth : 16 bits
Compression mode : Lossy
Stream size : 199 MiB (13%)
Title : Дублированный
Language : Russian
Default : Yes
Forced : No
Audio #2
ID : 3
Format : AC-3
Format/Info : Audio Coding 3
Mode extension : CM (complete main)
Format settings, Endianness : Big
Codec ID : A_AC3
Duration : 1h 12mn
Bit rate mode : Constant
Bit rate : 384 Kbps
Channel(s) : 6 channels
Channel positions : Front: L C R, Side: L R, LFE
Sampling rate : 48.0 KHz
Bit depth : 16 bits
Compression mode : Lossy
Stream size : 199 MiB (13%)
Title : Оригинал
Language : English
Default : No
Forced : No
-Все раздачи Барби: Принцесса и поп-звезда на NNM-CLUB-Скриншоты:

Время раздачи: c 09:00 до 24:00

[Цитировать]



Показать сообщения:    

Текущее время: 06-Дек 21:01

Часовой пояс: UTC + 3


Вы не можете начинать темы
Вы не можете отвечать на сообщения
Вы не можете редактировать свои сообщения
Вы не можете удалять свои сообщения
Вы не можете голосовать в опросах
Вы не можете прикреплять файлы к сообщениям
Вы не можете скачивать файлы

!ВНИМАНИЕ!
Сайт не предоставляет электронные версии произведений, а занимается лишь коллекционированием и каталогизацией ссылок, присылаемых и публикуемых на форуме нашими читателями. Если вы являетесь правообладателем какого-либо представленного материала и не желаете, чтобы ссылка на него находилась в нашем каталоге, свяжитесь с нами, и мы незамедлительно удалим ее. Файлы для обмена на трекере предоставлены пользователями сайта, и администрация не несет ответственности за их содержание. Просьба не заливать файлы, защищенные авторскими правами, а также файлы нелегального содержания!