[ Сегодня идет свободное скачивание без начисления Download ]


Статистика раздачи
Нет
 
   
 
Top  
 
 
- Краткий курс счастливой жизни (2012) SATRip - Режиссер / Телекомпания: Первый канал
Русское название: Краткий курс счастливой жизни
Год выпуска: 2012
Жанр: Комедия, драма, эротика
Описание:
Откровенные размышления о жизни современных молодых женщин. История о поисках счастья и трудностях в отношениях с противоположным полом четырех героинь - Саши, Любы, Кати и Ани. 35-летняя Саша - одинокая и свободная. Она разведена, живет с маленьким сыном, мамой и бабушкой. Встреча с Петром, который станет ее начальником и любовником, означает новый период в жизни. У ее новых коллег тоже не все благополучно. Секретарша Аня занята поисками второй половины. Люба решает, как справиться с тем, что она не может иметь детей, а Катя погрязла в семейном быту, который она больше не в силах терпеть...
Режиссер Валерия Гай Германика, известная своими проектами "Школа" и "Все умрут, а я останусь" сняла сериал по сценарию одной из самых ярких представительниц современной молодежной прозы писательницы Анны Козловой.
Творческий тандем Германики и Козловой шокирует своей искренностью и не останется не замеченным зрителями. От аналогичных "женских" сериалов он отличается, прежде всего, проникновением в наши представления о любви и последующим развенчанием общественных идеалов, касающихся семьи, взаимоотношений полов и роли женщины. Тех идеалов, которые мешают героям жить, и не несут в себе ничего, кроме отработанных до шлака надежд прошлых поколений.
Уберите детей от экрана!
Режиссёр: Валерия Гай Германика
В ролях: Светлана Ходченкова, Анна Слю, Алиса Хазанова (Бауманн), Ксения Громова, Кирилл Сафонов, Константин Демидов, Кирилл Жандаров, Алексей Барабаш, Олег Гаркуша, Игорь Золотовицкий, Александра Ребенок, Агния Кузнецова, Фёдор Лавров, Валентин Самохин, Константин Гацалов, Светлана Иванова-Сергеева, Алексей Юрченко, Полина Уварова
Продолжительность: ~ 00:52:00
Видеокодек: DviX
Битрейт видео: ~1500 kb/s
Размер кадра: 704 x 448 / 720 х 400
Качество видео: SATRip
Аудиокодек: MP3, 2ch.
Битрейт аудио: 192 kb/s / 128 kb/s

MediaInfo

Формат : AVI
Формат/Информация : Audio Video Interleave
Размер файла : 633 Мбайт
Продолжительность : 52 м.
Общий поток : 1702 Кбит/сек
Программа кодирования : VirtualDubModRus 1.5.10.1 (build 2439/release)
Библиотека кодирования : VirtualDubMod build 2439/release
Видео
Идентификатор : 0
Формат : MPEG-4 Visual
Параметр BVOP формата : 1
Параметр QPel формата : Нет
Параметр GMC формата : Без точки перехода
Параметр матрицы формата : Default (H.263)
Режим смешивания : Сжатый битовый поток
Идентификатор кодека : DX50
Идентификатор кодека/Подсказка : DivX 5
Продолжительность : 52 м.
Битрейт : 1500 Кбит/сек
Ширина : 704 пикселя
Высота : 448 пикселей
Соотношение сторон : 1,571
Частота кадров : 25,000 кадров/сек
Цветовое пространство : YUV
Субдискретизация насыщенности : 4:2:0
Битовая глубина : 8 бит
Тип развёртки : Прогрессивная
Метод сжатия : С потерями
Бит/(Пиксели*Кадры) : 0.190
Размер потока : 558 Мбайт (88%)
Библиотека кодирования : DivX 6.8.5 (UTC 2009-08-20)
Аудио
Идентификатор : 1
Формат : MPEG Audio
Версия формата : Version 1
Профиль формата : Layer 3
Режим : Joint stereo
Идентификатор кодека : 55
Идентификатор кодека/Подсказка : MP3
Продолжительность : 52 м.
Вид битрейта : Постоянный
Битрейт : 192 Кбит/сек
Каналы : 2 канала
Частота : 48,0 КГц
Метод сжатия : С потерями
Размер потока : 71,4 Мбайт (11%)
Выравнивание : Разделение по промежуткам
Продолжительность промежутка : 40 мс. (1,00 видеокадр)
Время предзагрузки промежутка : 500 мс.
Скриншоты:

[Цитировать]



Показать сообщения:    

Текущее время: 11-Дек 12:54

Часовой пояс: UTC + 3


Вы не можете начинать темы
Вы не можете отвечать на сообщения
Вы не можете редактировать свои сообщения
Вы не можете удалять свои сообщения
Вы не можете голосовать в опросах
Вы не можете прикреплять файлы к сообщениям
Вы не можете скачивать файлы

!ВНИМАНИЕ!
Сайт не предоставляет электронные версии произведений, а занимается лишь коллекционированием и каталогизацией ссылок, присылаемых и публикуемых на форуме нашими читателями. Если вы являетесь правообладателем какого-либо представленного материала и не желаете, чтобы ссылка на него находилась в нашем каталоге, свяжитесь с нами, и мы незамедлительно удалим ее. Файлы для обмена на трекере предоставлены пользователями сайта, и администрация не несет ответственности за их содержание. Просьба не заливать файлы, защищенные авторскими правами, а также файлы нелегального содержания!